Скачать через торрент Воспоминания Марни Omoide no Marnie бесплатно Аниме Все серии на русском torrent

Если у вас наблюдаются проблемы со скриншотами, переходом по ссылками, скачиванием торрентов - проблемы в блокировщике рекламы AdBlock. #хорошегоДня!


Статистика раздачи
Размер:  2.13 GB   |    Зарегистрирован:  2 года 5 месяцев   |    .torrent скачан:  35 раз   |   
Раздают:  1  
   
Загрузка...
 
Автор Сообщение

Galfimbul

avatar Galfimbul


Воспоминания Марни / Omoide no Marnie
Страна: Япония
Год выпуска: 2014 г.
Жанр: драма, мистика
Тип: Movie
Продолжительность: 1 ч. 42 мин.
Режиссер: Хиромаса Ёнэбаяси
Студия:
Русская озвучка: нет
Перевод субтитров: bocca_chiusa, Алиса Ку, Масатака Хикита
Описание: Двенадцатилетняя Анна — замкнутая и необщительная девочка. У неё нет друзей, и единственная отдушина — это рисование. Из-за слабого здоровья Анну отправляют на лето в небольшой городок в Хоккайдо. Там она встречает Марни — девочку, живущую в большом богатом доме на отмели. Постепенно они становятся хорошими подругами.
Эта дружба помогает Анне примириться с собой и окружающим миром. Но кто же такая Марни?
Качество: BDRip
Тип релиза: Без хардсаба
Формат видео: MKV
Наличие линковки: Нет
Видео: x264 (10 bit), 1280x688, 1 403 Kbps, 23.976 fps
Аудио (японский): DTS, 1 509 Kbps, 48.0 KHz, 5 ch
Субтитры (русский): ASS, встроенные
Субтитры (английский): PGS, встроенные
MediaInfoLib - v0.7.62

GeneralUnique ID : 227819670973930605039505806465406697294 (0xAB6478FDF2452308A747544CB2057F4E)Complete name : F:\Bacchant\Videos\Anime\When Marnie Was There\When.Marnie.Was.There.2014.720p.BluRay.x264.rus.sub.mkvFormat : MatroskaFormat version : Version 4 / Version 2File size : 2.13 GiBDuration : 1h 42mnOverall bit rate : 2 971 KbpsEncoded date : UTC 2015-03-28 14:37:47Writing application : mkvmerge v7.3.0 ('Nouages') 32bit built on Oct 22 2014 18:44:01Writing library : libebml v1.3.0 + libmatroska v1.4.1_STATISTICS_WRITING_APP : mkvmerge v7.3.0 ('Nouages') 32bit built on Oct 22 2014 18:44:01_STATISTICS_WRITING_DATE_UTC : 2015-03-28 14:37:47_STATISTICS_TAGS : BPS DURATION NUMBER_OF_FRAMES NUMBER_OF_BYTESDURATION : 01:42:25.050000000NUMBER_OF_FRAMES : 1069NUMBER_OF_BYTES : 73950

VideoID : 1Format : AVCFormat/Info : Advanced Video CodecFormat profile : High 10@L4.1Format settings, CABAC : YesFormat settings, ReFrames : 8 framesCodec ID : V_MPEG4/ISO/AVCDuration : 1h 42mnBit rate : 1 403 KbpsWidth : 1 280 pixelsHeight : 688 pixelsDisplay aspect ratio : 1.85:1Frame rate mode : ConstantFrame rate : 23.976 fpsColor space : YUVChroma subsampling : 4:2:0Bit depth : 10 bitsScan type : ProgressiveBits/(Pixel*Frame) : 0.066Stream size : 1.01 GiB (47%)Writing library : x264 core 146 r2538 121396cEncoding settings : cabac=1 / ref=8 / deblock=1:1:1 / analyse=0x3:0x133 / me=umh / subme=10 / psy=1 / psy_rd=0.40:0.00 / mixed_ref=1 / me_range=32 / chroma_me=1 / trellis=2 / 8x8dct=1 / cqm=0 / deadzone=21,11 / fast_pskip=0 / chroma_qp_offset=-2 / threads=12 / lookahead_threads=3 / sliced_threads=0 / nr=0 / decimate=1 / interlaced=0 / bluray_compat=0 / constrained_intra=0 / bframes=16 / b_pyramid=2 / b_adapt=2 / b_bias=0 / direct=3 / weightb=1 / open_gop=0 / weightp=2 / keyint=240 / keyint_min=23 / scenecut=40 / intra_refresh=0 / rc_lookahead=60 / rc=crf / mbtree=0 / crf=18.0 / qcomp=0.60 / qpmin=0 / qpmax=81 / qpstep=4 / vbv_maxrate=62500 / vbv_bufsize=78125 / crf_max=0.0 / nal_hrd=none / filler=0 / ip_ratio=1.40 / pb_ratio=1.30 / aq=1:0.60Language : EnglishDefault : YesForced : No_STATISTICS_WRITING_APP : mkvmerge v7.3.0 ('Nouages') 32bit built on Oct 22 2014 18:44:01_STATISTICS_WRITING_DATE_UTC : 2015-03-28 14:37:47_STATISTICS_TAGS : BPS DURATION NUMBER_OF_FRAMES NUMBER_OF_BYTESDURATION : 01:42:41.948000000NUMBER_OF_FRAMES : 147739NUMBER_OF_BYTES : 1117547808

AudioID : 2Format : DTSFormat/Info : Digital Theater SystemsMode : 16Format settings, Endianness : BigCodec ID : A_DTSDuration : 1h 42mnBit rate mode : ConstantBit rate : 1 509 KbpsChannel(s) : 5 channelsChannel positions : Front: L C R, Side: L RSampling rate : 48.0 KHzBit depth : 24 bitsCompression mode : LossyStream size : 1.08 GiB (51%)Language : JapaneseDefault : YesForced : No

Text #1ID : 3Format : PGSMuxing mode : zlibCodec ID : S_HDMV/PGSCodec ID/Info : The same subtitle format used on BDs/HD-DVDsLanguage : EnglishDefault : NoForced : No

Text #2ID : 4Format : ASSCodec ID : S_TEXT/ASSCodec ID/Info : Advanced Sub Station AlphaCompression mode : LosslessLanguage : RussianDefault : YesForced : No
[url]...4972455[/url]
[url]...4972463[/url]
— альтернативный перевод, встроенные русские субтитры


Трекер:  [ 28-Мар-2015 19:00 ]

  

Скачать .torrent

Размер .torrent файла 11 KB


Размер: 2.13 GB
Хэш (hash) релиза: 817df57746575034de907594962ee6c4e3527204
Подписка на обновления:

Торренты, похожие на Воспоминания Марни Omoide no Marnie скачать торрент

Форум Название Автор Размер S L Добавлен
Аниме | Rips ·· Воспоминания Марни / Omoide no Marnie / When Marnie Was There [Movie] [Без хардсаба] [RUS(int), JAP+SUB] [2014 г., драма, мистика, BDRip] [720p] [HD] Galfimbul 45602524414.25 GB 0 0 1428962152

00:55

14-Апр-15

Аниме | HD Rips ·· Воспоминания Марни / Omoide no Marnie / When Marnie Was There [Movie] [Без хардсаба] [JAP+SUB] [2014 г., драма, мистика, BDRemux] [1080p] Galfimbul 2521553256223.48 GB 0 0 1427710450

13:14

30-Мар-15

Аниме | HD Rips ·· Воспоминания Марни / Omoide no Marnie / When Marnie Was There (Хиромаса Ёнэбаяси) [Movie] [Без хардсаба] [JAP, SUB] [2014 г., драма, мистика, BDRip] [720p] Galfimbul 13721282351.28 GB 0 0 1427577118

00:11

29-Мар-15

Аниме | HD Rips ·· Когда здесь была Марни / Omoide no Marnie / When Marnie Was There / Воспоминания о Марни [Movie] [Без хардсаба] [RUS(int), JAP, ENG+SUB] [2014, приключения, драма, повседневность, Blu-ray] [1080p] Galfimbul 4937409739945.98 GB 0 0 1483703119

14:45

6-Янв-17

Аниме | HD Rips ·· Воспоминания о Марни / Omoide no Marnie / When Marnie Was There (Ёнэбаяси Хиромаса) [Movie][Без хардсаба][RUS(ext), UKR, JAP+SUB][2014, приключения, драма, мистика, BDRip][1080p] Galfimbul 1827072967717.02 GB 0 0 1482757720

16:08

26-Дек-16

Аниме | HD Rips ·· Воспоминания о Марни / Omoide no Marnie / When Marnie Was There (Ёнэбаяси Хиромаса) [Movie][Без хардсаба][RUS(ext), UKR, JAP+SUB][2014, приключения, драма, мистика, BDRip][1080p] Galfimbul 1827072967717.02 GB 0 0 1482756492

15:48

26-Дек-16

Аниме | Rips ·· Воспоминания о Марни / Omoide no Marnie / When Marnie Was There (Хиромаса Ёнэбаяси) [Movie][Без хардсаба][RUS(int), JAP+SUB] [2014, приключения, драма, мистика, BDRip] Galfimbul 11235482881.05 GB 0 0 1453230097

22:01

19-Янв-16

Аниме | HD Rips ·· Воспоминания о Марни / Omoide no Marnie / When Marnie Was There (Ёнэбаяси Хиромаса) [Movie][Без хардсаба][RUS(ext), JAP+SUB][2014, приключения, драма, мистика, BDRip][1080p] Galfimbul 1661311520415.47 GB 0 0 1428997783

10:49

14-Апр-15

Еще никто не оставлял запись к записи скачать торрент Воспоминания Марни Omoide no Marnie . Будь первым!

!Обратная связь