Скачать через торрент музыку Золушка Cinderella бесплатно без регистрации torrent

Если у вас наблюдаются проблемы со скриншотами, переходом по ссылками, скачиванием торрентов - проблемы в блокировщике рекламы AdBlock. #хорошегоДня!


Статистика раздачи
Размер:  364 MB   |    Зарегистрирован:  2 года 5 месяцев   |    .torrent скачан:  27 раз   |   
Раздают:  1  
   
Загрузка...
 
Автор Сообщение

Galfimbul

avatar Galfimbul


Золушка / Cinderella
Жанр: Score
Композитор: Patrick Doyle
Год выпуска диска: 2015
Производитель диска: EU
Издатель (лейбл): Walt Disney Records
Номер по каталогу: 00050087312312
Аудиокодек: FLAC (*.flac)
Тип рипа: tracks+.cue
Битрейт аудио: lossless
Продолжительность: 01:18:35
Источник: собственный рип
Наличие сканов в содержимом раздачи: нет
Ссылки: Кинопоиск | IMDB | Wikipedia | SoundtrackCollector
WEB-FLAC (33 трека): [url=...9999999999999999999999]coming soon[/url]
MP3 (33 трека): [url=...4964656](Score) Золушка / Cinderella (by Patrick Doyle & VA) - 2015, MP3 (tracks), 320 kbps[/url]
01. A Golden Childhood [0:03:56.69]
02. The Great Secret [0:03:01.13]
03. A New Family [0:02:15.25]
04. Life And Laughter [0:01:34.70]
05. The First Branch [0:02:11.03]
06. Nice And Airy [0:01:53.35]
07. Orphaned [0:03:46.59]
08. The Stag [0:04:56.24]
09. Rich Beyond Reason [0:01:43.18]
10. Fairy Godmother [0:02:47.66]
11. Pumpkins And Mice [0:04:32.54]
12. You Shall Go [0:03:02.31]
13. Valse Royale [0:02:06.22]
14. Who Is She [0:03:20.23]
15. La Valse De L'Amour [0:02:34.42]
16. La Valse Champagne [0:01:35.12]
17. La Polka Militaire [0:01:47.69]
18. La Polka De Paris [0:01:22.55]
19. A Secret Garden [0:02:48.23]
20. La Polka De Minuit [0:02:02.44]
21. Choose That One [0:01:16.62]
22. Pumpkin Pursuit [0:02:28.55]
23. The Slipper [0:01:00.05]
24. Shattered Dreams [0:04:10.36]
25. Searching The Kingdom [0:02:51.49]
26. Ella And Kit [0:02:11.54]
27. Courage And Kindness [0:04:38.62]
28. Sonna Rele / Strong [0:03:14.04]
29. Lily James / A Dream Is A Wish Your Heart Makes [0:02:00.41]
30. Helena Bonham Carter / Bibbidi-Bobbidi-Boo (The Magic Song) [0:01:22.35]
Exact Audio Copy V1.0 beta 3 from 29. August 2011

EAC extraction logfile from 23. March 2015, 15:26

Patrick Doyle / Cinderella

Used drive : PLEXTOR CD-R PX-230A Adapter: 0 ID: 0

Read mode : SecureUtilize accurate stream : YesDefeat audio cache : YesMake use of C2 pointers : No

Read offset correction : 738Overread into Lead-In and Lead-Out : NoFill up missing offset samples with silence : YesDelete leading and trailing silent blocks : NoNull samples used in CRC calculations : YesUsed interface : Native Win32 interface for Win NT & 2000Gap handling : Appended to previous track

Used output format : User Defined EncoderSelected bitrate : 1024 kBit/sQuality : HighAdd ID3 tag : NoCommand line compressor : C:\Program Files\Exact Audio Copy\Flac\flac.exeAdditional command line options : -6 -V -T "ARTIST=%artist%" -T "TITLE=%title%" -T "ALBUM=%albumtitle%" -T "DATE=%year%"-T "TRACKNUMBER=%tracknr%" -T "GENRE=%genre%" -T "COMMENT=%comment%" -T "ALBUMARTIST=%albuminterpret%" -T "COMPOSER=%composer%"-T "DISCNUMBER=%cdnumber%" -T "TOTALDISCS=%totalcds%" -T "TOTALTRACKS=%numtracks%" %source% -o %dest%

TOC of the extracted CD

Track | Start | Length | Start sector | End sector --------------------------------------------------------- 1 | 0:00.00 | 3:56.69 | 0 | 17768 2 | 3:56.69 | 3:01.13 | 17769 | 31356 3 | 6:58.07 | 2:15.25 | 31357 | 41506 4 | 9:13.32 | 1:34.70 | 41507 | 48626 5 | 10:48.27 | 2:11.03 | 48627 | 58454 6 | 12:59.30 | 1:53.35 | 58455 | 66964 7 | 14:52.65 | 3:46.59 | 66965 | 83973 8 | 18:39.49 | 4:56.24 | 83974 | 106197 9 | 23:35.73 | 1:43.18 | 106198 | 113940 10 | 25:19.16 | 2:47.66 | 113941 | 126531 11 | 28:07.07 | 4:32.54 | 126532 | 146985 12 | 32:39.61 | 3:02.31 | 146986 | 160666 13 | 35:42.17 | 2:06.22 | 160667 | 170138 14 | 37:48.39 | 3:20.23 | 170139 | 185161 15 | 41:08.62 | 2:34.42 | 185162 | 196753 16 | 43:43.29 | 1:35.12 | 196754 | 203890 17 | 45:18.41 | 1:47.69 | 203891 | 211984 18 | 47:06.35 | 1:22.55 | 211985 | 218189 19 | 48:29.15 | 2:48.23 | 218190 | 230812 20 | 51:17.38 | 2:02.44 | 230813 | 240006 21 | 53:20.07 | 1:16.62 | 240007 | 245768 22 | 54:36.69 | 2:28.55 | 245769 | 256923 23 | 57:05.49 | 1:00.05 | 256924 | 261428 24 | 58:05.54 | 4:10.36 | 261429 | 280214 25 | 62:16.15 | 2:51.49 | 280215 | 293088 26 | 65:07.64 | 2:11.54 | 293089 | 302967 27 | 67:19.43 | 4:38.62 | 302968 | 323879 28 | 71:58.30 | 3:14.04 | 323880 | 338433 29 | 75:12.34 | 2:00.41 | 338434 | 347474 30 | 77:13.00 | 1:22.35 | 347475 | 353659

Track 1

Filename C:\Music\01 - Patrick Doyle - A Golden Childhood.wav

Pre-gap length 0:00:02.00

Peak level 71.8 % Extraction speed 4.0 X Track quality 100.0 % Test CRC 3D0D30C4 Copy CRC 3D0D30C4 Track not present in AccurateRip database Copy OK

Track 2

Filename C:\Music\02 - Patrick Doyle - The Great Secret.wav

Peak level 36.8 % Extraction speed 5.4 X Track quality 100.0 % Test CRC D6D3BB96 Copy CRC D6D3BB96 Track not present in AccurateRip database Copy OK

Track 3

Filename C:\Music\03 - Patrick Doyle - A New Family.wav

Peak level 82.5 % Extraction speed 5.1 X Track quality 100.0 % Test CRC 1F0FEF8A Copy CRC 1F0FEF8A Track not present in AccurateRip database Copy OK

Track 4

Filename C:\Music\04 - Patrick Doyle - Life And Laughter.wav

Peak level 60.3 % Extraction speed 3.4 X Track quality 99.8 % Test CRC 9E039FB6 Copy CRC 9E039FB6 Track not present in AccurateRip database Copy OK

Track 5

Filename C:\Music\05 - Patrick Doyle - The First Branch.wav

Peak level 52.6 % Extraction speed 3.7 X Track quality 100.0 % Test CRC 40F92500 Copy CRC 40F92500 Track not present in AccurateRip database Copy OK

Track 6

Filename C:\Music\06 - Patrick Doyle - Nice And Airy.wav

Peak level 17.7 % Extraction speed 4.6 X Track quality 100.0 % Test CRC CB5FA9CF Copy CRC CB5FA9CF Track not present in AccurateRip database Copy OK

Track 7

Filename C:\Music\07 - Patrick Doyle - Orphaned.wav

Peak level 33.1 % Extraction speed 4.8 X Track quality 100.0 % Test CRC 08136002 Copy CRC 08136002 Track not present in AccurateRip database Copy OK

Track 8

Filename C:\Music\08 - Patrick Doyle - The Stag.wav

Peak level 96.6 % Extraction speed 4.5 X Track quality 100.0 % Test CRC DB05CC1E Copy CRC DB05CC1E Track not present in AccurateRip database Copy OK

Track 9

Filename C:\Music\09 - Patrick Doyle - Rich Beyond Reason.wav

Peak level 31.2 % Extraction speed 3.8 X Track quality 99.8 % Test CRC C41D61D8 Copy CRC C41D61D8 Track not present in AccurateRip database Copy OK

Track 10

Filename C:\Music\10 - Patrick Doyle - Fairy Godmother.wav

Peak level 96.8 % Extraction speed 5.3 X Track quality 100.0 % Test CRC A0215E3B Copy CRC A0215E3B Track not present in AccurateRip database Copy OK

Track 11

Filename C:\Music\11 - Patrick Doyle - Pumpkins And Mice.wav

Peak level 84.5 % Extraction speed 5.6 X Track quality 100.0 % Test CRC 468E5CB8 Copy CRC 468E5CB8 Track not present in AccurateRip database Copy OK

Track 12

Filename C:\Music\12 - Patrick Doyle - You Shall Go.wav

Peak level 89.7 % Extraction speed 5.3 X Track quality 100.0 % Test CRC CAEE97BD Copy CRC CAEE97BD Track not present in AccurateRip database Copy OK

Track 13

Filename C:\Music\13 - Patrick Doyle - Valse Royale.wav

Peak level 61.8 % Extraction speed 5.0 X Track quality 100.0 % Test CRC F270FDDB Copy CRC F270FDDB Track not present in AccurateRip database Copy OK

Track 14

Filename C:\Music\14 - Patrick Doyle - Who Is She.wav

Peak level 78.6 % Extraction speed 5.4 X Track quality 100.0 % Test CRC A3C5DAD2 Copy CRC A3C5DAD2 Track not present in AccurateRip database Copy OK

Track 15

Filename C:\Music\15 - Patrick Doyle - La Valse De L'Amour.wav

Peak level 51.9 % Extraction speed 5.1 X Track quality 100.0 % Test CRC 2B207B94 Copy CRC 2B207B94 Track not present in AccurateRip database Copy OK

Track 16

Filename C:\Music\16 - Patrick Doyle - La Valse Champagne.wav

Peak level 71.9 % Extraction speed 4.4 X Track quality 100.0 % Test CRC 867CADEB Copy CRC 867CADEB Track not present in AccurateRip database Copy OK

Track 17

Filename C:\Music\17 - Patrick Doyle - La Polka Militaire.wav

Peak level 92.8 % Extraction speed 4.6 X Track quality 100.0 % Test CRC A75524CB Copy CRC A75524CB Track not present in AccurateRip database Copy OK

Track 18

Filename C:\Music\18 - Patrick Doyle - La Polka De Paris.wav

Peak level 92.2 % Extraction speed 4.7 X Track quality 100.0 % Test CRC E006BF0C Copy CRC E006BF0C Track not present in AccurateRip database Copy OK

Track 19

Filename C:\Music\19 - Patrick Doyle - A Secret Garden.wav

Peak level 79.1 % Extraction speed 4.5 X Track quality 99.9 % Test CRC B19F96E6 Copy CRC B19F96E6 Track not present in AccurateRip database Copy OK

Track 20

Filename C:\Music\20 - Patrick Doyle - La Polka De Minuit.wav

Peak level 96.9 % Extraction speed 3.7 X Track quality 100.0 % Test CRC 43300E2F Copy CRC 43300E2F Track not present in AccurateRip database Copy OK

Track 21

Filename C:\Music\21 - Patrick Doyle - Choose That One.wav

Peak level 96.5 % Extraction speed 4.4 X Track quality 100.0 % Test CRC BB9EF83B Copy CRC BB9EF83B Track not present in AccurateRip database Copy OK

Track 22

Filename C:\Music\22 - Patrick Doyle - Pumpkin Pursuit.wav

Peak level 97.2 % Extraction speed 4.5 X Track quality 99.9 % Test CRC 7A7F7E8B Copy CRC 7A7F7E8B Track not present in AccurateRip database Copy OK

Track 23

Filename C:\Music\23 - Patrick Doyle - The Slipper.wav

Peak level 38.9 % Extraction speed 3.0 X Track quality 99.8 % Test CRC B6736F2E Copy CRC B6736F2E Track not present in AccurateRip database Copy OK

Track 24

Filename C:\Music\24 - Patrick Doyle - Shattered Dreams.wav

Peak level 96.2 % Extraction speed 5.6 X Track quality 100.0 % Test CRC 2298B5CB Copy CRC 2298B5CB Track not present in AccurateRip database Copy OK

Track 25

Filename C:\Music\25 - Patrick Doyle - Searching The Kingdom.wav

Peak level 96.0 % Extraction speed 4.5 X Track quality 99.9 % Test CRC EFB8FD8D Copy CRC EFB8FD8D Track not present in AccurateRip database Copy OK

Track 26

Filename C:\Music\26 - Patrick Doyle - Ella And Kit.wav

Peak level 25.7 % Extraction speed 5.0 X Track quality 100.0 % Test CRC 80B24F03 Copy CRC 80B24F03 Track not present in AccurateRip database Copy OK

Track 27

Filename C:\Music\27 - Patrick Doyle - Courage And Kindness.wav

Peak level 77.8 % Extraction speed 5.3 X Track quality 100.0 % Test CRC 943D2823 Copy CRC 943D2823 Track not present in AccurateRip database Copy OK

Track 28

Filename C:\Music\28 - Sonna Rele - Strong.wav

Peak level 98.9 % Extraction speed 5.3 X Track quality 100.0 % Test CRC CB1AC300 Copy CRC CB1AC300 Track not present in AccurateRip database Copy OK

Track 29

Filename C:\Music\29 - Lily James - A Dream Is A Wish Your Heart Makes.wav

Peak level 76.7 % Extraction speed 4.8 X Track quality 100.0 % Test CRC 65DDEB07 Copy CRC 65DDEB07 Track not present in AccurateRip database Copy OK

Track 30

Filename C:\Music\30 - Helena Bonham Carter - Bibbidi-Bobbidi-Boo (The Magic Song).wav

Peak level 94.7 % Extraction speed 4.0 X Track quality 100.0 % Test CRC 95E2DC4B Copy CRC 95E2DC4B Track not present in AccurateRip database Copy OK

None of the tracks are present in the AccurateRip database

No errors occurred

End of status report

==== Log checksum 4687CA0E3ACBBAE81F20BE29FCCD238B7C7BDF6FB0FA99EC010B5F68AA449BD9 ====
REM GENRE SoundtrackREM DATE 2015REM DISCID A7126B1EREM COMMENT "ExactAudioCopy v1.0b3"PERFORMER "Patrick Doyle"TITLE "Cinderella"FILE "01 - Patrick Doyle - A Golden Childhood.wav" WAVE TRACK 01 AUDIO TITLE "A Golden Childhood" PERFORMER "Patrick Doyle" INDEX 01 00:00:00FILE "02 - Patrick Doyle - The Great Secret.wav" WAVE TRACK 02 AUDIO TITLE "The Great Secret" PERFORMER "Patrick Doyle" INDEX 01 00:00:00FILE "03 - Patrick Doyle - A New Family.wav" WAVE TRACK 03 AUDIO TITLE "A New Family" PERFORMER "Patrick Doyle" INDEX 01 00:00:00FILE "04 - Patrick Doyle - Life And Laughter.wav" WAVE TRACK 04 AUDIO TITLE "Life And Laughter" PERFORMER "Patrick Doyle" INDEX 01 00:00:00FILE "05 - Patrick Doyle - The First Branch.wav" WAVE TRACK 05 AUDIO TITLE "The First Branch" PERFORMER "Patrick Doyle" INDEX 01 00:00:00FILE "06 - Patrick Doyle - Nice And Airy.wav" WAVE TRACK 06 AUDIO TITLE "Nice And Airy" PERFORMER "Patrick Doyle" INDEX 01 00:00:00FILE "07 - Patrick Doyle - Orphaned.wav" WAVE TRACK 07 AUDIO TITLE "Orphaned" PERFORMER "Patrick Doyle" INDEX 01 00:00:00FILE "08 - Patrick Doyle - The Stag.wav" WAVE TRACK 08 AUDIO TITLE "The Stag" PERFORMER "Patrick Doyle" INDEX 01 00:00:00FILE "09 - Patrick Doyle - Rich Beyond Reason.wav" WAVE TRACK 09 AUDIO TITLE "Rich Beyond Reason" PERFORMER "Patrick Doyle" INDEX 01 00:00:00FILE "10 - Patrick Doyle - Fairy Godmother.wav" WAVE TRACK 10 AUDIO TITLE "Fairy Godmother" PERFORMER "Patrick Doyle" INDEX 01 00:00:00FILE "11 - Patrick Doyle - Pumpkins And Mice.wav" WAVE TRACK 11 AUDIO TITLE "Pumpkins And Mice" PERFORMER "Patrick Doyle" INDEX 01 00:00:00FILE "12 - Patrick Doyle - You Shall Go.wav" WAVE TRACK 12 AUDIO TITLE "You Shall Go" PERFORMER "Patrick Doyle" INDEX 01 00:00:00FILE "13 - Patrick Doyle - Valse Royale.wav" WAVE TRACK 13 AUDIO TITLE "Valse Royale" PERFORMER "Patrick Doyle" INDEX 01 00:00:00FILE "14 - Patrick Doyle - Who Is She.wav" WAVE TRACK 14 AUDIO TITLE "Who Is She" PERFORMER "Patrick Doyle" INDEX 01 00:00:00FILE "15 - Patrick Doyle - La Valse De L'Amour.wav" WAVE TRACK 15 AUDIO TITLE "La Valse De L'Amour" PERFORMER "Patrick Doyle" INDEX 01 00:00:00FILE "16 - Patrick Doyle - La Valse Champagne.wav" WAVE TRACK 16 AUDIO TITLE "La Valse Champagne" PERFORMER "Patrick Doyle" INDEX 01 00:00:00FILE "17 - Patrick Doyle - La Polka Militaire.wav" WAVE TRACK 17 AUDIO TITLE "La Polka Militaire" PERFORMER "Patrick Doyle" INDEX 01 00:00:00FILE "18 - Patrick Doyle - La Polka De Paris.wav" WAVE TRACK 18 AUDIO TITLE "La Polka De Paris" PERFORMER "Patrick Doyle" INDEX 01 00:00:00FILE "19 - Patrick Doyle - A Secret Garden.wav" WAVE TRACK 19 AUDIO TITLE "A Secret Garden" PERFORMER "Patrick Doyle" INDEX 01 00:00:00FILE "20 - Patrick Doyle - La Polka De Minuit.wav" WAVE TRACK 20 AUDIO TITLE "La Polka De Minuit" PERFORMER "Patrick Doyle" INDEX 01 00:00:00FILE "21 - Patrick Doyle - Choose That One.wav" WAVE TRACK 21 AUDIO TITLE "Choose That One" PERFORMER "Patrick Doyle" INDEX 01 00:00:00FILE "22 - Patrick Doyle - Pumpkin Pursuit.wav" WAVE TRACK 22 AUDIO TITLE "Pumpkin Pursuit" PERFORMER "Patrick Doyle" INDEX 01 00:00:00FILE "23 - Patrick Doyle - The Slipper.wav" WAVE TRACK 23 AUDIO TITLE "The Slipper" PERFORMER "Patrick Doyle" INDEX 01 00:00:00FILE "24 - Patrick Doyle - Shattered Dreams.wav" WAVE TRACK 24 AUDIO TITLE "Shattered Dreams" PERFORMER "Patrick Doyle" INDEX 01 00:00:00FILE "25 - Patrick Doyle - Searching The Kingdom.wav" WAVE TRACK 25 AUDIO TITLE "Searching The Kingdom" PERFORMER "Patrick Doyle" INDEX 01 00:00:00FILE "26 - Patrick Doyle - Ella And Kit.wav" WAVE TRACK 26 AUDIO TITLE "Ella And Kit" PERFORMER "Patrick Doyle" INDEX 01 00:00:00FILE "27 - Patrick Doyle - Courage And Kindness.wav" WAVE TRACK 27 AUDIO TITLE "Courage And Kindness" PERFORMER "Patrick Doyle" INDEX 01 00:00:00FILE "28 - Sonna Rele - Strong.wav" WAVE TRACK 28 AUDIO TITLE "Strong" PERFORMER "Sonna Rele" INDEX 01 00:00:00FILE "29 - Lily James - A Dream Is A Wish Your Heart Makes.wav" WAVE TRACK 29 AUDIO TITLE "A Dream Is A Wish Your Heart Makes" PERFORMER "Lily James" INDEX 01 00:00:00FILE "30 - Helena Bonham Carter - Bibbidi-Bobbidi-Boo (The Magic Song).wav" WAVE TRACK 30 AUDIO TITLE "Bibbidi-Bobbidi-Boo (The Magic Song)" PERFORMER "Helena Bonham Carter" INDEX 01 00:00:00


Трекер:  [ 23-Мар-2015 19:00 ]

  

Скачать .torrent

Размер .torrent файла 31 KB


Размер: 364 MB
Хэш (hash) релиза: b5bf23b2d631c787e98bd287fdcbe745a21fe996

Торренты, похожие на Золушка Cinderella скачать торрент

Форум Название Автор Размер S L Добавлен
Саундтреки к фильмам и мультфильмам (lossless) ·· (Score) Золушка / Cinderella (The Legacy Collection) (VA) - 2015, FLAC [WEB] (tracks), lossless Galfimbul 464220663443 MB 0 0 1451905541

14:05

4-Янв-16

Саундтреки к фильмам и мультфильмам (mp3) ·· (Score) Золушка / Cinderella (The Legacy Collection, 2CD) (VA) - 2015 (1950), MP3 (tracks) 320 kbps Galfimbul 254189935242 MB 0 0 1434785802

10:36

20-Июн-15

Саундтреки к фильмам и мультфильмам (lossless) ·· (Score) Золушка / Cinderella (Patrick Doyle, VA) [WEB] - 2015, FLAC (tracks) lossless Galfimbul 413766273395 MB 0 0 1427131191

20:19

23-Мар-15

Саундтреки к фильмам и мультфильмам (mp3) ·· (Score) Золушка / Cinderella (Patrick Doyle, VA) [WEB] - 2015, MP3 (tracks) 320 kbps Galfimbul 207873275198 MB 0 0 1427129198

19:46

23-Мар-15

Саундтреки к фильмам и мультфильмам (mp3) ·· (Soundtrack) Золушка / Cinderella (by Patrick Doyle & VA) - 2015, MP3 (tracks), 320 kbps Galfimbul 208412210199 MB 0 0 1426621595

22:46

17-Мар-15

Саундтреки к аниме (mp3) ·· (OST) The iDOLM@STER Cinderella Girls (Идолмастер: Девушки-Золушки) - 2014-2015, 9 CD, MP3 (tracks), 320 kbps Galfimbul 24367323752.27 GB 0 0 1481717427

15:10

14-Дек-16

Саундтреки к аниме (mp3) ·· (OST) The iDOLM@STER Cinderella Girls (Идолмастер: Девушки-Золушки) - 2014-2015, 9 CD, MP3 (tracks), 320 kbps Galfimbul 24370217912.27 GB 0 0 1481715862

14:44

14-Дек-16

Саундтреки к аниме (mp3) ·· (OST) The iDOLM@STER Cinderella Girls (Идолмастер: Девушки-Золушки) - 2014-2015, 9 CD, MP3 (tracks), 320 kbps Galfimbul 24370571082.27 GB 0 0 1479637137

13:18

20-Ноя-16

Саундтреки к аниме (mp3) ·· (OST) The iDOLM@STER Cinderella Girls (Идолмастер: Девушки-Золушки) - 2014-2015, 9 CD, MP3 (tracks), 320 kbps Galfimbul 874915173834 MB 0 0 1429719495

19:18

22-Апр-15

Саундтреки ·· (Score) Золушка / Cenerentola / Cinderella [single] (by Andrea Guerra) - 2012 (2011), MP3, 320 kbps L 1291278012 MB 0 0 1357655040

17:24

8-Янв-13

Саундтреки к фильмам и мультфильмам (lossless) ·· (Soundtrack / Pop) Another Cinderella Story / Еще одна история о золушке (Selena Gomez, Drew Seeley) - 2008, FLAC (tracks+.cue), lossless Galfimbul 329445976314 MB 0 0 1292269000

22:36

13-Дек-10

Саундтреки к фильмам и мультфильмам (mp3) ·· (Soundtrack / Pop) A Cinderella Story / История Золушки (Hilary Duff, Jesse McCartney) - 2004, MP3 (tracks), 320 kbps Солнышко 118654545113 MB 0 0 1292266302

21:51

13-Дек-10

Саундтреки к фильмам и мультфильмам (mp3) ·· (Soundtrack) Cinderella'80 / Золушка 80- 1992 [MP3, 128-192] Galfimbul 4958717147 MB 0 0 1292265601

21:40

13-Дек-10

Саундтреки к фильмам и мультфильмам (mp3) ·· (Soundtrack / Pop) Another Cinderella Story / Еще одна история о золушке (Selena Gomez, Drew Seeley) - 2008, MP3 (tracks), 320 kbps AqvaGen 105133669100 MB 0 0 1292265152

21:32

13-Дек-10

Еще никто не оставлял запись к записи скачать торрент Золушка Cinderella . Будь первым!

!Обратная связь