Скачать через торрент музыку Десять заповедей The Ten Commandments бесплатно без регистрации torrent

Если у вас наблюдаются проблемы со скриншотами, переходом по ссылками, скачиванием торрентов - проблемы в блокировщике рекламы AdBlock. #хорошегоДня!


Статистика раздачи
Размер:  338 MB   |    Зарегистрирован:  2 года 5 месяцев   |    .torrent скачан:  30 раз   |   
Раздают:  1  
   
Загрузка...
 
Автор Сообщение

Galfimbul

avatar Galfimbul


Десять заповедей / The Ten Commandments

Жанр: Score
Композитор: Elmer Bernstein
Год выпуска диска: 1989
Год выпуска фильма: 1956
Страна-производитель диска: США
Издатель (лейбл): MCA Classics
Номер по каталогу: MCAD 42320
Аудиокодек: APE (*.ape)
Тип рипа: image+.cue
Битрейт аудио: lossless
Продолжительность: 59:56
Источник: ослосеть
Наличие сканов в содержимом раздачи: нет

Треклист:
01. Prelude (5:07)
02. In the Bullrushes (4:01)
03. The Bitter Life (2:05)
04. Love and Ambition (4:03)
05. The Hard Bondage (2:03)
06. Egyptian Dance (2:52)
07. The Crucible of God (3:07)
08. And Moses Watered Jethro's Flock (2:35)
09. Bedouin Dance (1:56)
10. I am that I am (3:13)
11. Overture (2:06)
12. Thus Says the Lord (3:39)
13. The Plagues (2:51)
14. The Exodus (6:00)
15. The Pillar of Fire (2:45)
16. The Red Sea (2:30)
17. The Ten Commandments (5:40)
18. Go, Proclaim Liberty! (3:36)
Exact Audio Copy V0.99 prebeta 4 from 23. January 2008

Archivo Log de extracciones desde 13. Diciembre 2008, 17:24

Elmer Bernstein / THE TEN COMMANDMENTS

Usar unidad : HL-DT-STDVDRAM GH20NS10 Adapter: 0 ID: 0

Modo de Lectura : SeguroUtilizar Corriente Exacta : SнDescartar Audio cachй : SнUtilizar los punteros C2 : No

Correcciуn de Desplazamiento de Lectura : 667Sobreleer tanto en Lead-In como en Lead-Out : NoRellenar las muestras faltantes con silencios : SнEliminar silencios inicial y final : NoSe han usado muestras nulas en los cбlculos CRC : SнInterfaz usada : Interfaz ASPI externo instalado

Formato de Salida utilizado : Rutinas WAV InternasFormato de Muestreo : 44.100 Hz; 16 Bit; Estйreo

TOC del CD extraido

Pista | Inicio | Duraciуn | Sector inicial | Sector final ------------------------------------------------------------- 1 | 0:00.32 | 5:08.03 | 32 | 23134 2 | 5:08.35 | 4:02.72 | 23135 | 41356 3 | 9:11.32 | 2:06.38 | 41357 | 50844 4 | 11:17.70 | 4:04.02 | 50845 | 69146 5 | 15:21.72 | 2:04.63 | 69147 | 78509 6 | 17:26.60 | 2:53.45 | 78510 | 91529 7 | 20:20.30 | 3:09.37 | 91530 | 105741 8 | 23:29.67 | 2:17.73 | 105742 | 116089 9 | 25:47.65 | 1:58.72 | 116090 | 125011 10 | 27:46.62 | 3:13.68 | 125012 | 139554 11 | 31:00.55 | 2:08.37 | 139555 | 149191 12 | 33:09.17 | 3:40.03 | 149192 | 165694 13 | 36:49.20 | 2:51.65 | 165695 | 178584 14 | 39:41.10 | 5:57.70 | 178585 | 205429 15 | 45:39.05 | 2:47.55 | 205430 | 218009 16 | 48:26.60 | 2:33.25 | 218010 | 229509 17 | 51:00.10 | 5:40.10 | 229510 | 255019 18 | 56:40.20 | 3:16.00 | 255020 | 269719

Gama de estados y errores

Seleccionar gama

Nombre de Archivo C:\THE TEN COMMANDMENTS_Elmer Bernstein\Elmer Bernstein - THE TEN COMMANDMENTS.wav

Nivel Pico 100.0 % Gama de Calidad 99.9 % Copiar CRC A5B037EB Copia OK

Sin Errores

Resumen AccurateRip

Pista 1 no presente en la base de datosPista 2 no presente en la base de datosPista 3 no presente en la base de datosPista 4 no presente en la base de datosPista 5 no presente en la base de datosPista 6 no presente en la base de datosPista 7 no presente en la base de datosPista 8 no presente en la base de datosPista 9 no presente en la base de datosPista 10 no presente en la base de datosPista 11 no presente en la base de datosPista 12 no presente en la base de datosPista 13 no presente en la base de datosPista 14 no presente en la base de datosPista 15 no presente en la base de datosPista 16 no presente en la base de datosPista 17 no presente en la base de datosPista 18 no presente en la base de datos

Ninguna de las pistas estб presente en la base de datos AccurateRip

Final del Informe
REM GENRE SoundtrackREM DATE 1956REM DISCID EA0E0C12REM COMMENT "ExactAudioCopy v0.99pb4"PERFORMER "Elmer Bernstein"TITLE "THE TEN COMMANDMENTS"FILE "Elmer Bernstein - THE TEN COMMANDMENTS.ape" WAVE TRACK 01 AUDIO TITLE "Prelude" PERFORMER "Elmer Bernstein" INDEX 00 00:00:00 INDEX 01 00:00:32 TRACK 02 AUDIO TITLE "In The Bulrushes" PERFORMER "Elmer Bernstein" INDEX 00 05:06:10 INDEX 01 05:08:35 TRACK 03 AUDIO TITLE "The Bitter Life" PERFORMER "Elmer Bernstein" INDEX 00 09:09:22 INDEX 01 09:11:32 TRACK 04 AUDIO TITLE "Love And Ambition" PERFORMER "Elmer Bernstein" INDEX 00 11:15:30 INDEX 01 11:17:70 TRACK 05 AUDIO TITLE "The Hard Bondage" PERFORMER "Elmer Bernstein" INDEX 00 15:19:60 INDEX 01 15:21:72 TRACK 06 AUDIO TITLE "Egyptian Dance" PERFORMER "Elmer Bernstein" INDEX 00 17:24:32 INDEX 01 17:26:60 TRACK 07 AUDIO TITLE "The Crucible Of God" PERFORMER "Elmer Bernstein" INDEX 00 20:17:27 INDEX 01 20:20:30 TRACK 08 AUDIO TITLE "And Moses Watered Jethro's Flock" PERFORMER "Elmer Bernstein" INDEX 00 23:27:20 INDEX 01 23:29:67 TRACK 09 AUDIO TITLE "Bedouin Dance" PERFORMER "Elmer Bernstein" INDEX 00 25:45:07 INDEX 01 25:47:65 TRACK 10 AUDIO TITLE "I Am That I Am" PERFORMER "Elmer Bernstein" INDEX 00 27:43:70 INDEX 01 27:46:62 TRACK 11 AUDIO TITLE "Overture" PERFORMER "Elmer Bernstein" INDEX 00 30:59:40 INDEX 01 31:00:55 TRACK 12 AUDIO TITLE "Thus Says The Lord" PERFORMER "Elmer Bernstein" INDEX 00 33:06:57 INDEX 01 33:09:17 TRACK 13 AUDIO TITLE "The Plagues" PERFORMER "Elmer Bernstein" INDEX 00 36:46:70 INDEX 01 36:49:20 TRACK 14 AUDIO TITLE "The Exodus" PERFORMER "Elmer Bernstein" INDEX 00 39:38:50 INDEX 01 39:41:10 TRACK 15 AUDIO TITLE "The Pillars Of Fire" PERFORMER "Elmer Bernstein" INDEX 00 45:38:30 INDEX 01 45:39:05 TRACK 16 AUDIO TITLE "The Red Sea" PERFORMER "Elmer Bernstein" INDEX 00 48:24:60 INDEX 01 48:26:60 TRACK 17 AUDIO TITLE "The Ten Commandments" PERFORMER "Elmer Bernstein" INDEX 00 50:57:52 INDEX 01 51:00:10 TRACK 18 AUDIO TITLE "Go, Proclaim Liberty!" PERFORMER "Elmer Bernstein" INDEX 00 56:37:62 INDEX 01 56:40:20
Started at: понедельник, 23. 03. 2015. - 2:12.11

1 file found, 1 file left after filtering

1 -===- T:\! MOVIES\Elmer Bernstein - The Ten Commandments (1989) [APE]\Elmer Bernstein - The Ten Commandments.ape Extracted successfully Conclusion: This track looks like CDDA with probability 100% Tempfile successfully deleted.

Finished at: понедельник, 23. 03. 2015. - 2:18.56 (operation time: 0:06.45)


Трекер:  [ 23-Мар-2015 02:00 ]

  

Скачать .torrent

Размер .torrent файла 14 KB


Размер: 338 MB
Хэш (hash) релиза: c985ab45daf61a6c1796fc52a6797f9385831559

Еще никто не оставлял запись к записи скачать торрент Десять заповедей The Ten Commandments . Будь первым!

!Обратная связь