Скачать через торрент Не Пожиратель Душ! Soul Eater Not! бесплатно Аниме Все серии на русском torrent

Если у вас наблюдаются проблемы со скриншотами, переходом по ссылками, скачиванием торрентов - проблемы в блокировщике рекламы AdBlock. #хорошегоДня!


Статистика раздачи
Размер:  3.18 GB   |    Зарегистрирован:  2 года 6 месяцев   |    .torrent скачан:  35 раз   |   
Раздают:  1  
   
Загрузка...
 
Автор Сообщение

Galfimbul

avatar Galfimbul



Год выпуска: 2014
Страна: Япония
Жанр: комедия
Продолжительность: ТВ, 12 эп. по 25 мин.
Выпуск: c 09.04.2014 по 02.07.2014
Перевод:
<ol class="post-ul">
русские субтитры от Esito & Klimena (полные/вспомогательные)
</ol>
Режиссер: Хасимото Масакадзу
Студия: BONES
Описание:
Мы снова в Пропащем Городе, он же Смерть-Сити! Но, в отличие от прошлой истории, рассказ пойдет не о главных талантах Оружейной Академии (они, конечно же, появятся!), а о простых ребятах, которые не рвутся в Воины Божьи, а желают найти себя, овладеть врожденными способностями и не быть опасными для окружающих. Именно такова 14-летняя японка Цугуми Харудори, внезапно открывшая в себе дар превращаться в алебарду. Делать нечего – надо лететь через океан и усердно учиться, а там Синигами-сама в помощь!

Как вы помните, живому оружию нужен напарник-мейстер, и тут у открытой и честной Цугуми вновь беда: она никак не сделает выбор между двумя соседками и подружками – богатой наследницей, эксцентричной Аней Хэпбёрн и землячкой Мэмэ Татанэ, настолько познавшей дзэн, что забывает собственное имя. Девчонки они все хорошие, вот и работают до сих пор втроем, искренне восхищаясь встреченными гениями и другими колоритными личностями. Ну а нечисти, предателей и заговорщиков в Смерть-Сити на всех хватит – наши героини если и не догонят, так хоть согреются!
© Hollow, World Art

Смысл названия сериала в том, что его герои учатся в классе NOT – normally overcome target (просто одолей цель) – отделении для тех, кто не может драться на высшем уровне и желает просто освоить свои способности.
Информационные ссылки: AniDB || World Art || MAL
Качество: BDRip
Энкод: Winter - RG Pantheon
Тип видео: без хардсаба, без линковки
Формат: mkv
Видео: x264 (Hi10p), 1280x720, ~2700 Kbps, 23.976 fps
Аудио JAP: Vorbis, 48000Hz, ~256 Kbps, 2ch
Аудио RUS 1: AC3, 48000Hz, ~192 Kbps, 2ch (внешними файлами)
<ol class="post-ul">
многоголосая от AniDub
участники: Cuba77, Inspector_Gadjet, Kiara_Laine, Oriko, BalFor, Гамлетка Цезаревна, Shina
</ol>
01. Enrolling at DWMA!
02. Girls` Dorms a la Carte!
03. The Witch of the Girls` Dorm!
04. Waver, Run!
05. Invitation Fighting!
06. This Is a Real Fight!
[url]...4713893[/url]
- BDRip
Общее
Уникальный идентификатор : 184417056683442956363961907756105281041 (0x8ABD6EE4603CC55EB759007AA7A52E11)
Уникальный идентификатор : 184417056683442956363961907756105281041 (0x8ABD6EE4603CC55EB759007AA7A52E11) Полное имя : A:\Anime\720p\Soul Eater Not! [BD] [720p]\[Winter] Soul Eater Not! 01 [BDrip 1280x720 x264 Vorbis].mkv
Полное имя : A:\Anime\720p\Soul Eater Not! [BD] [720p]\[Winter] Soul Eater Not! 01 [BDrip 1280x720 x264 Vorbis].mkv Формат : Matroska
Формат : Matroska Версия формата : Version 2
Версия формата : Version 2 Размер файла : 514 Мбайт
Размер файла : 514 Мбайт Продолжительность : 23 м.
Продолжительность : 23 м. Режим общего битрейта : Переменный
Режим общего битрейта : Переменный Общий поток : 2998 Кбит/сек
Общий поток : 2998 Кбит/сек Дата кодирования : UTC 2015-03-09 17:05:31
Дата кодирования : UTC 2015-03-09 17:05:31 Программа кодирования : mkvmerge v2.9.8 ('C'est le bon') built on Aug 13 2009 12:49:06
Программа кодирования : mkvmerge v2.9.8 ('C'est le bon') built on Aug 13 2009 12:49:06 Библиотека кодирования : libebml v0.7.7 + libmatroska v0.8.1
Библиотека кодирования : libebml v0.7.7 + libmatroska v0.8.1
Видео
Идентификатор : 1
Идентификатор : 1 Формат : AVC
Формат : AVC Формат/Информация : Advanced Video Codec
Формат/Информация : Advanced Video Codec Профиль формата : High 10@L4.1
Профиль формата : High 10@L4.1 Параметр CABAC формата : Да
Параметр CABAC формата : Да Параметр ReFrames формата : 9 кадров
Параметр ReFrames формата : 9 кадров Идентификатор кодека : V_MPEG4/ISO/AVC
Идентификатор кодека : V_MPEG4/ISO/AVC Продолжительность : 23 м.
Продолжительность : 23 м. Битрейт : 2682 Кбит/сек
Битрейт : 2682 Кбит/сек Ширина : 1280 пикселей
Ширина : 1280 пикселей Высота : 720 пикселей
Высота : 720 пикселей Соотношение сторон : 16:9
Соотношение сторон : 16:9 Режим частоты кадров : Постоянный
Режим частоты кадров : Постоянный Частота кадров : 23,976 кадра/сек
Частота кадров : 23,976 кадра/сек Цветовое пространство : YUV
Цветовое пространство : YUV Субдискретизация насыщенности : 4:2:0
Субдискретизация насыщенности : 4:2:0 Битовая глубина : 10 бит
Битовая глубина : 10 бит Тип развёртки : Прогрессивная
Тип развёртки : Прогрессивная Бит/(Пиксели*Кадры) : 0.121
Бит/(Пиксели*Кадры) : 0.121 Размер потока : 459 Мбайт (89%)
Размер потока : 459 Мбайт (89%) Библиотека кодирования : x264 core 132 r2309 3b1f1f7
Библиотека кодирования : x264 core 132 r2309 3b1f1f7 Настройки программы : cabac=1 / ref=9 / deblock=1:-2:-2 / analyse=0x3:0x133 / me=umh / subme=9 / psy=1 / psy_rd=0.90:0.00 / mixed_ref=1 / me_range=24 / chroma_me=1 / trellis=2 / 8x8dct=1 / cqm=0 / deadzone=21,11 / fast_pskip=1 / chroma_qp_offset=-2 / threads=12 / lookahead_threads=2 / sliced_threads=0 / nr=0 / decimate=0 / interlaced=0 / bluray_compat=0 / constrained_intra=0 / bframes=8 / b_pyramid=2 / b_adapt=2 / b_bias=0 / direct=1 / weightb=1 / open_gop=0 / weightp=2 / keyint=250 / keyint_min=23 / scenecut=40 / intra_refresh=0 / rc=crf / mbtree=0 / crf=15.6 / qcomp=0.70 / qpmin=9 / qpmax=40 / qpstep=4 / ip_ratio=1.40 / pb_ratio=1.30 / aq=1:0.90
Настройки программы : cabac=1 / ref=9 / deblock=1:-2:-2 / analyse=0x3:0x133 / me=umh / subme=9 / psy=1 / psy_rd=0.90:0.00 / mixed_ref=1 / me_range=24 / chroma_me=1 / trellis=2 / 8x8dct=1 / cqm=0 / deadzone=21,11 / fast_pskip=1 / chroma_qp_offset=-2 / threads=12 / lookahead_threads=2 / sliced_threads=0 / nr=0 / decimate=0 / interlaced=0 / bluray_compat=0 / constrained_intra=0 / bframes=8 / b_pyramid=2 / b_adapt=2 / b_bias=0 / direct=1 / weightb=1 / open_gop=0 / weightp=2 / keyint=250 / keyint_min=23 / scenecut=40 / intra_refresh=0 / rc=crf / mbtree=0 / crf=15.6 / qcomp=0.70 / qpmin=9 / qpmax=40 / qpstep=4 / ip_ratio=1.40 / pb_ratio=1.30 / aq=1:0.90 Default : Нет
Default : Нет Forced : Нет
Forced : Нет
Аудио
Идентификатор : 2
Идентификатор : 2 Формат : Vorbis
Формат : Vorbis Параметр Floor формата : 1
Параметр Floor формата : 1 Идентификатор кодека : A_VORBIS
Идентификатор кодека : A_VORBIS Продолжительность : 23 м.
Продолжительность : 23 м. Вид битрейта : Переменный
Вид битрейта : Переменный Битрейт : 256 Кбит/сек
Битрейт : 256 Кбит/сек Каналы : 2 канала
Каналы : 2 канала Частота : 48,0 КГц
Частота : 48,0 КГц Метод сжатия : С потерями
Метод сжатия : С потерями Размер потока : 43,9 Мбайт (9%)
Размер потока : 43,9 Мбайт (9%) Библиотека кодирования : libVorbis (Schaufenugget) (20101101 (Schaufenugget))
Библиотека кодирования : libVorbis (Schaufenugget) (20101101 (Schaufenugget)) Язык : Japanese
Язык : Japanese Default : Да
Default : Да Forced : Нет
Forced : Нет


<ol class="post-ul">
Выбор видео, перевода, озвучки, а также типа сборки материала осуществляется релизером и не подлежит обсуждению. Если вы считаете, что раздаваемый материал противоречит правилам раздела "Аниме" rutracker.org, сообщите об этом одному из модераторов раздела.

В случае появления нового материала или же лучшего по качеству материала релизер оставляет за собой право обновить раздачу. В этом случае вам необходимо ознакомиться с изменениями (добавлениями) и перекачать торрент.

Данный релиз предназначен для просмотра на ПК. Воспроизведение на иных проигрывателях не гарантируется. Для просмотра рекомендуется Media Player Classic с установленным пакетом кодеков K-Lite.

Данный релиз содержит 10-битное видео (Hi10p). Для корректного воспроизведения обязательно используйте кодеки, поддерживающие 10-битное видео.
Обсудить проблемы с воспроизведением и получить дополнительную информацию можно [url=...3682344]здесь[/url].

Данный релиз предназначен для просмотра с внешними субтитрами и внешними звуковыми дорожками.
<ol class="post-ul">
Для просмотра с внешней звуковой дорожкой нужно:
перекинуть файлы .mka из папки "RUS Sound [<автор(ы) озвучки>]" в одну папку с видео и переключить звуковую дорожку в плеере при просмотре. Как это сделать в разных плеерах подробно описано [url=...2403326]здесь[/url].
Для просмотра с субтитрами нужно:
перекинуть файлы .ass из папки "RUS Subtitles [<автор(ы) перевода>]" в одну папку с видео - плеер подгрузит их автоматически при открытии видео.
</ol>

Если у вас возникли проблемы с просмотром, не связанные с описанным выше, сообщите о них автору раздачи посредством сообщения в теме или ЛС Aglenn.
</ol>


Трекер:  [ 22-Мар-2015 16:00 ]

  

Скачать .torrent

Размер .torrent файла 19 KB


Размер: 3.18 GB
Хэш (hash) релиза: e5b734f3486299cdbcc1d2f998402da3ca7ae418
Подписка на обновления:

Еще никто не оставлял запись к записи скачать торрент Не Пожиратель Душ! Soul Eater Not! . Будь первым!

!Обратная связь