Скачать через торрент музыку Тысяча и одна ночь Les 1001 nuits бесплатно без регистрации torrent

Если у вас наблюдаются проблемы со скриншотами, переходом по ссылками, скачиванием торрентов - проблемы в блокировщике рекламы AdBlock. #хорошегоДня!


Статистика раздачи
Размер:  404 MB   |    Зарегистрирован:  2 года 6 месяцев   |    .torrent скачан:  33 раза   |   
Раздают:  1  
   
Загрузка...
 
Автор Сообщение

Galfimbul

avatar Galfimbul


Тысяча и одна ночь / Les 1001 nuits
Жанр: Score
Композитор: Gabriel Yared
Год выпуска диска: 2015
Год выпуска фильма: 1990
Производитель диска: Replik-CD, France
Издатель (лейбл): Music Box Records
Номер по каталогу: MBR-058
Аудиокодек: FLAC (*.flac)
Тип рипа: tracks+.cue
Битрейт аудио: lossless
Продолжительность: 01:07:01
Источник: собственный рип
Наличие сканов в содержимом раздачи: да, 600dpi
Доп. инфо: Лимитированное издание, 500 копий. Первый фильм, в котором снималась Catherine Zeta-Jones.
Ссылки: Кинопоиск | IMDB | Wikipedia | SoundtrackCollector
MP3: [url=...4963188](Score) Тысяча и одна ночь / Les 1001 nuits (Gabriel Yared) - 2015 (1990), MP3 (tracks) 320 kbps[/url]
Original Score: [url=...3693695](Score) 1001 ночь / Les 1001 Nuits (by Gabriel Yared) - 1990, MP3, 320 kbps[/url]
Gabriel Yared на трекере: [url=...786&nm=Gabriel+Yared]lossless[/url] | [url=...785&nm=Gabriel+Yared]lossy[/url]

Внимание: торрент обновлен, рип был переснят сегодня, 16.03.2015.
01. Les 1001 Nuits (générique) [0:02:07.08]
02. Ballade pour Jimmy [0:02:44.18]
03. Les jardins du Roi [0:00:54.33]
04. Déclaration de Sinbad [0:01:03.04]
05. Le harem [0:02:11.08]
06. La rencontre du Roi [0:02:23.56]
07. Le jeune marin [0:01:56.28]
08. Flots bleus [0:01:49.16]
09. Poursuite dans Bagdad [0:01:23.24]
10. La capture d'Aladin [0:01:53.18]
11. La chambre royale [0:03:09.35]
12. À la rescousse [0:01:30.57]
13. Le désert [0:03:16.70]
14. La tempête [0:01:43.73]
15. La cage dorée [0:02:02.63]
16. L'avion [0:02:16.70]
17. La taverne [0:02:17.52]
18. Shéhérazade et Sinbad prennent le large [0:01:26.45]
19. Aladin amoureux [0:01:50.74]
20. Le navire [0:01:23.58]
21. La sirène [0:02:14.63]
22. L'histoire continue ainsi [0:01:59.53]
23. L'arrestation [0:01:19.63]
24. Le retour du Roi / Les 1001 Nuits [0:02:29.61]
25. Shéhérazade [0:04:06.58]
26. Le Roi acrobate [0:02:11.01]
27. Le tango du cheval [0:02:20.45]
28. Le manège [0:01:28.55]
29. Les 1001 Nuits - Répétition d'orchestre [0:09:22.70]
Exact Audio Copy V1.0 beta 3 from 29. August 2011

EAC extraction logfile from 16. March 2015, 18:56

Gabriel Yared / Les 1001 Nuits

Used drive : PLEXTOR CD-R PX-230A Adapter: 2 ID: 0

Read mode : SecureUtilize accurate stream : YesDefeat audio cache : YesMake use of C2 pointers : No

Read offset correction : 738Overread into Lead-In and Lead-Out : NoFill up missing offset samples with silence : YesDelete leading and trailing silent blocks : NoNull samples used in CRC calculations : YesUsed interface : Native Win32 interface for Win NT & 2000Gap handling : Appended to previous track

Used output format : User Defined EncoderSelected bitrate : 768 kBit/sQuality : HighAdd ID3 tag : NoCommand line compressor : C:\Program Files (x86)\Exact Audio Copy\FLAC\FLAC.EXEAdditional command line options : -6 -V -T "ARTIST=%artist%" -T "TITLE=%title%" -T "ALBUM=%albumtitle%" -T "DATE=%year%"-T "TRACKNUMBER=%tracknr%" -T "GENRE=%genre%" -T "COMMENT=%comment%" -T "ALBUMARTIST=%albuminterpret%" -T "COMPOSER=%composer%"-T "DISCNUMBER=%cdnumber%" -T "TOTALDISCS=%totalcds%" -T "TOTALTRACKS=%numtracks%" %source% -o %dest%

TOC of the extracted CD

Track | Start | Length | Start sector | End sector --------------------------------------------------------- 1 | 0:00.00 | 2:07.08 | 0 | 9532 2 | 2:07.08 | 2:44.18 | 9533 | 21850 3 | 4:51.26 | 0:54.33 | 21851 | 25933 4 | 5:45.59 | 1:03.04 | 25934 | 30662 5 | 6:48.63 | 2:11.08 | 30663 | 40495 6 | 8:59.71 | 2:23.56 | 40496 | 51276 7 | 11:23.52 | 1:56.28 | 51277 | 60004 8 | 13:20.05 | 1:49.16 | 60005 | 68195 9 | 15:09.21 | 1:23.24 | 68196 | 74444 10 | 16:32.45 | 1:53.18 | 74445 | 82937 11 | 18:25.63 | 3:09.35 | 82938 | 97147 12 | 21:35.23 | 1:30.57 | 97148 | 103954 13 | 23:06.05 | 3:16.70 | 103955 | 118724 14 | 26:23.00 | 1:43.73 | 118725 | 126522 15 | 28:06.73 | 2:02.63 | 126523 | 135735 16 | 30:09.61 | 2:16.70 | 135736 | 146005 17 | 32:26.56 | 2:17.52 | 146006 | 156332 18 | 34:44.33 | 1:26.45 | 156333 | 162827 19 | 36:11.03 | 1:50.74 | 162828 | 171151 20 | 38:02.02 | 1:23.58 | 171152 | 177434 21 | 39:25.60 | 2:14.63 | 177435 | 187547 22 | 41:40.48 | 1:59.53 | 187548 | 196525 23 | 43:40.26 | 1:19.63 | 196526 | 202513 24 | 45:00.14 | 2:29.61 | 202514 | 213749 25 | 47:30.00 | 4:06.58 | 213750 | 232257 26 | 51:36.58 | 2:11.01 | 232258 | 242083 27 | 53:47.59 | 2:20.45 | 242084 | 252628 28 | 56:08.29 | 1:28.55 | 252629 | 259283 29 | 57:37.09 | 9:22.70 | 259284 | 301503

Track 1

Filename C:\Music\01 - Gabriel Yared - Les 1001 Nuits (générique).wav

Pre-gap length 0:00:02.00

Peak level 52.2 % Extraction speed 4.0 X Track quality 99.9 % Test CRC 70A118CC Copy CRC 70A118CC Accurately ripped (confidence 1) [7021AD32] (AR v2) Copy OK

Track 2

Filename C:\Music\02 - Gabriel Yared - Ballade pour Jimmy.wav

Pre-gap length 0:00:02.00

Peak level 84.1 % Extraction speed 5.1 X Track quality 100.0 % Test CRC C7830D13 Copy CRC C7830D13 Accurately ripped (confidence 1) [3D2D7C31] (AR v2) Copy OK

Track 3

Filename C:\Music\03 - Gabriel Yared - Les jardins du Roi.wav

Pre-gap length 0:00:02.00

Peak level 47.7 % Extraction speed 2.7 X Track quality 99.8 % Test CRC C42EEF56 Copy CRC C42EEF56 Accurately ripped (confidence 1) [841D7E18] (AR v2) Copy OK

Track 4

Filename C:\Music\04 - Gabriel Yared - Déclaration de Sinbad.wav

Pre-gap length 0:00:02.00

Peak level 42.3 % Extraction speed 2.8 X Track quality 99.8 % Test CRC 16613BF5 Copy CRC 16613BF5 Accurately ripped (confidence 1) [2481D621] (AR v2) Copy OK

Track 5

Filename C:\Music\05 - Gabriel Yared - Le harem.wav

Pre-gap length 0:00:02.00

Peak level 77.6 % Extraction speed 4.0 X Track quality 99.9 % Test CRC 28048800 Copy CRC 28048800 Accurately ripped (confidence 1) [0BB2093C] (AR v2) Copy OK

Track 6

Filename C:\Music\06 - Gabriel Yared - La rencontre du Roi.wav

Pre-gap length 0:00:02.00

Peak level 68.6 % Extraction speed 4.1 X Track quality 99.9 % Test CRC 8981B6DB Copy CRC 8981B6DB Accurately ripped (confidence 1) [6AF8C839] (AR v2) Copy OK

Track 7

Filename C:\Music\07 - Gabriel Yared - Le jeune marin.wav

Pre-gap length 0:00:02.00

Peak level 31.4 % Extraction speed 4.7 X Track quality 100.0 % Test CRC 4EC93A16 Copy CRC 4EC93A16 Accurately ripped (confidence 1) [708B79B5] (AR v2) Copy OK

Track 8

Filename C:\Music\08 - Gabriel Yared - Flots bleus.wav

Pre-gap length 0:00:02.00

Peak level 60.8 % Extraction speed 3.7 X Track quality 99.9 % Test CRC 76FFD63D Copy CRC 76FFD63D Accurately ripped (confidence 1) [6A49C4BC] (AR v2) Copy OK

Track 9

Filename C:\Music\09 - Gabriel Yared - Poursuite dans Bagdad.wav

Pre-gap length 0:00:02.00

Peak level 84.1 % Extraction speed 3.3 X Track quality 99.8 % Test CRC 6F334E04 Copy CRC 6F334E04 Accurately ripped (confidence 1) [9CF05E9A] (AR v2) Copy OK

Track 10

Filename C:\Music\10 - Gabriel Yared - La capture d'Aladin.wav

Pre-gap length 0:00:02.00

Peak level 71.2 % Extraction speed 3.8 X Track quality 99.9 % Test CRC 16AA0F43 Copy CRC 16AA0F43 Accurately ripped (confidence 1) [13D8F4C1] (AR v2) Copy OK

Track 11

Filename C:\Music\11 - Gabriel Yared - La chambre royale.wav

Pre-gap length 0:00:02.00

Peak level 74.8 % Extraction speed 5.2 X Track quality 100.0 % Test CRC 51B11A48 Copy CRC 51B11A48 Accurately ripped (confidence 1) [CF26210D] (AR v2) Copy OK

Track 12

Filename C:\Music\12 - Gabriel Yared - À la rescousse.wav

Pre-gap length 0:00:02.00

Peak level 84.1 % Extraction speed 4.4 X Track quality 100.0 % Test CRC A274E779 Copy CRC A274E779 Accurately ripped (confidence 1) [FD5B7A67] (AR v2) Copy OK

Track 13

Filename C:\Music\13 - Gabriel Yared - Le désert.wav

Pre-gap length 0:00:02.00

Peak level 53.8 % Extraction speed 5.2 X Track quality 100.0 % Test CRC 8068406E Copy CRC 8068406E Accurately ripped (confidence 1) [57269A96] (AR v2) Copy OK

Track 14

Filename C:\Music\14 - Gabriel Yared - La tempête.wav

Pre-gap length 0:00:02.00

Peak level 72.0 % Extraction speed 4.6 X Track quality 100.0 % Test CRC BAC80EF4 Copy CRC BAC80EF4 Accurately ripped (confidence 1) [6E04DB00] (AR v2) Copy OK

Track 15

Filename C:\Music\15 - Gabriel Yared - La cage dorée.wav

Pre-gap length 0:00:02.00

Peak level 52.7 % Extraction speed 3.9 X Track quality 99.9 % Test CRC EB8AAAB9 Copy CRC EB8AAAB9 Accurately ripped (confidence 1) [C2A7FEEF] (AR v2) Copy OK

Track 16

Filename C:\Music\16 - Gabriel Yared - L'avion.wav

Pre-gap length 0:00:02.00

Peak level 73.5 % Extraction speed 4.9 X Track quality 100.0 % Test CRC 3C03F9E1 Copy CRC 3C03F9E1 Accurately ripped (confidence 1) [E270F7EB] (AR v2) Copy OK

Track 17

Filename C:\Music\17 - Gabriel Yared - La taverne.wav

Pre-gap length 0:00:02.00

Peak level 79.4 % Extraction speed 4.9 X Track quality 100.0 % Test CRC 6471C805 Copy CRC 6471C805 Accurately ripped (confidence 1) [84EA45F8] (AR v2) Copy OK

Track 18

Filename C:\Music\18 - Gabriel Yared - Shéhérazade et Sinbad prennent le large.wav

Pre-gap length 0:00:02.00

Peak level 28.4 % Extraction speed 4.3 X Track quality 100.0 % Test CRC 8F76686D Copy CRC 8F76686D Accurately ripped (confidence 1) [57C4485E] (AR v2) Copy OK

Track 19

Filename C:\Music\19 - Gabriel Yared - Aladin amoureux.wav

Pre-gap length 0:00:02.00

Peak level 41.0 % Extraction speed 4.6 X Track quality 100.0 % Test CRC 705F11EC Copy CRC 705F11EC Accurately ripped (confidence 1) [5CD814AD] (AR v2) Copy OK

Track 20

Filename C:\Music\20 - Gabriel Yared - Le navire.wav

Pre-gap length 0:00:02.00

Peak level 67.3 % Extraction speed 4.3 X Track quality 100.0 % Test CRC 0A07C74A Copy CRC 0A07C74A Accurately ripped (confidence 1) [9957ACE6] (AR v2) Copy OK

Track 21

Filename C:\Music\21 - Gabriel Yared - La sirène.wav

Pre-gap length 0:00:02.00

Peak level 53.2 % Extraction speed 4.8 X Track quality 100.0 % Test CRC 99C9BEEB Copy CRC 99C9BEEB Accurately ripped (confidence 1) [D382BF75] (AR v2) Copy OK

Track 22

Filename C:\Music\22 - Gabriel Yared - L'histoire continue ainsi.wav

Pre-gap length 0:00:02.00

Peak level 70.9 % Extraction speed 4.6 X Track quality 100.0 % Test CRC 3339AA2D Copy CRC 3339AA2D Accurately ripped (confidence 1) [771611CA] (AR v2) Copy OK

Track 23

Filename C:\Music\23 - Gabriel Yared - L'arrestation.wav

Pre-gap length 0:00:02.00

Peak level 79.3 % Extraction speed 4.2 X Track quality 100.0 % Test CRC B6BBE93A Copy CRC B6BBE93A Accurately ripped (confidence 1) [306D128A] (AR v2) Copy OK

Track 24

Filename C:\Music\24 - Gabriel Yared - Le retour du Roi , Les 1001 Nuits.wav

Pre-gap length 0:00:02.00

Peak level 73.8 % Extraction speed 4.9 X Track quality 100.0 % Test CRC 773B25AD Copy CRC 773B25AD Accurately ripped (confidence 1) [070967B9] (AR v2) Copy OK

Track 25

Filename C:\Music\25 - Gabriel Yared - Shéhérazade.wav

Pre-gap length 0:00:03.00

Peak level 62.6 % Extraction speed 5.4 X Track quality 100.0 % Test CRC 17F6EC78 Copy CRC 17F6EC78 Accurately ripped (confidence 1) [955BDAA3] (AR v2) Copy OK

Track 26

Filename C:\Music\26 - Gabriel Yared - Le Roi acrobate.wav

Pre-gap length 0:00:02.00

Peak level 63.5 % Extraction speed 4.8 X Track quality 100.0 % Test CRC 11C4EDAE Copy CRC 11C4EDAE Accurately ripped (confidence 1) [CD612228] (AR v2) Copy OK

Track 27

Filename C:\Music\27 - Gabriel Yared - Le tango du cheval.wav

Pre-gap length 0:00:02.00

Peak level 54.0 % Extraction speed 4.9 X Track quality 100.0 % Test CRC E7FBDE8E Copy CRC E7FBDE8E Accurately ripped (confidence 1) [F282C784] (AR v2) Copy OK

Track 28

Filename C:\Music\28 - Gabriel Yared - Le manège.wav

Pre-gap length 0:00:02.00

Peak level 49.9 % Extraction speed 4.3 X Track quality 100.0 % Test CRC 47DC1B00 Copy CRC 47DC1B00 Accurately ripped (confidence 1) [976A938B] (AR v2) Copy OK

Track 29

Filename C:\Music\29 - Gabriel Yared - Les 1001 Nuits - Répétition d'orchestre.wav

Pre-gap length 0:00:02.00

Peak level 82.1 % Extraction speed 5.7 X Track quality 100.0 % Test CRC 34B45ADC Copy CRC 34B45ADC Accurately ripped (confidence 1) [55003F7F] (AR v2) Copy OK

All tracks accurately ripped

No errors occurred

End of status report

==== Log checksum C8AD59D26FF95550D479528090DF249580A840949CD3BC88628E32D06DC75C77 ====
REM GENRE SoundtrackREM DATE 2015REM DISCID A90FB41DREM COMMENT "ExactAudioCopy v1.0b3"PERFORMER "Gabriel Yared"TITLE "Les 1001 Nuits"FILE "01 - Gabriel Yared - Les 1001 Nuits (generique).wav" WAVE TRACK 01 AUDIO TITLE "Les 1001 Nuits (generique)" PERFORMER "Gabriel Yared" INDEX 01 00:00:00 TRACK 02 AUDIO TITLE "Ballade pour Jimmy" PERFORMER "Gabriel Yared" INDEX 00 02:05:08FILE "02 - Gabriel Yared - Ballade pour Jimmy.wav" WAVE INDEX 01 00:00:00 TRACK 03 AUDIO TITLE "Les jardins du Roi" PERFORMER "Gabriel Yared" INDEX 00 02:42:18FILE "03 - Gabriel Yared - Les jardins du Roi.wav" WAVE INDEX 01 00:00:00 TRACK 04 AUDIO TITLE "Declaration de Sinbad" PERFORMER "Gabriel Yared" INDEX 00 00:52:33FILE "04 - Gabriel Yared - Declaration de Sinbad.wav" WAVE INDEX 01 00:00:00 TRACK 05 AUDIO TITLE "Le harem" PERFORMER "Gabriel Yared" INDEX 00 01:01:04FILE "05 - Gabriel Yared - Le harem.wav" WAVE INDEX 01 00:00:00 TRACK 06 AUDIO TITLE "La rencontre du Roi" PERFORMER "Gabriel Yared" INDEX 00 02:09:08FILE "06 - Gabriel Yared - La rencontre du Roi.wav" WAVE INDEX 01 00:00:00 TRACK 07 AUDIO TITLE "Le jeune marin" PERFORMER "Gabriel Yared" INDEX 00 02:21:56FILE "07 - Gabriel Yared - Le jeune marin.wav" WAVE INDEX 01 00:00:00 TRACK 08 AUDIO TITLE "Flots bleus" PERFORMER "Gabriel Yared" INDEX 00 01:54:28FILE "08 - Gabriel Yared - Flots bleus.wav" WAVE INDEX 01 00:00:00 TRACK 09 AUDIO TITLE "Poursuite dans Bagdad" PERFORMER "Gabriel Yared" INDEX 00 01:47:16FILE "09 - Gabriel Yared - Poursuite dans Bagdad.wav" WAVE INDEX 01 00:00:00 TRACK 10 AUDIO TITLE "La capture d'Aladin" PERFORMER "Gabriel Yared" INDEX 00 01:21:24FILE "10 - Gabriel Yared - La capture d'Aladin.wav" WAVE INDEX 01 00:00:00 TRACK 11 AUDIO TITLE "La chambre royale" PERFORMER "Gabriel Yared" INDEX 00 01:51:18FILE "11 - Gabriel Yared - La chambre royale.wav" WAVE INDEX 01 00:00:00 TRACK 12 AUDIO TITLE "A la rescousse" PERFORMER "Gabriel Yared" INDEX 00 03:07:35FILE "12 - Gabriel Yared - A la rescousse.wav" WAVE INDEX 01 00:00:00 TRACK 13 AUDIO TITLE "Le desert" PERFORMER "Gabriel Yared" INDEX 00 01:28:57FILE "13 - Gabriel Yared - Le desert.wav" WAVE INDEX 01 00:00:00 TRACK 14 AUDIO TITLE "La tempete" PERFORMER "Gabriel Yared" INDEX 00 03:14:70FILE "14 - Gabriel Yared - La tempete.wav" WAVE INDEX 01 00:00:00 TRACK 15 AUDIO TITLE "La cage doree" PERFORMER "Gabriel Yared" INDEX 00 01:41:73FILE "15 - Gabriel Yared - La cage doree.wav" WAVE INDEX 01 00:00:00 TRACK 16 AUDIO TITLE "L'avion" PERFORMER "Gabriel Yared" INDEX 00 02:00:63FILE "16 - Gabriel Yared - L'avion.wav" WAVE INDEX 01 00:00:00 TRACK 17 AUDIO TITLE "La taverne" PERFORMER "Gabriel Yared" INDEX 00 02:14:70FILE "17 - Gabriel Yared - La taverne.wav" WAVE INDEX 01 00:00:00 TRACK 18 AUDIO TITLE "Sheherazade et Sinbad prennent le large" PERFORMER "Gabriel Yared" INDEX 00 02:15:52FILE "18 - Gabriel Yared - Sheherazade et Sinbad prennent le large.wav" WAVE INDEX 01 00:00:00 TRACK 19 AUDIO TITLE "Aladin amoureux" PERFORMER "Gabriel Yared" INDEX 00 01:24:45FILE "19 - Gabriel Yared - Aladin amoureux.wav" WAVE INDEX 01 00:00:00 TRACK 20 AUDIO TITLE "Le navire" PERFORMER "Gabriel Yared" INDEX 00 01:48:74FILE "20 - Gabriel Yared - Le navire.wav" WAVE INDEX 01 00:00:00 TRACK 21 AUDIO TITLE "La sirene" PERFORMER "Gabriel Yared" INDEX 00 01:21:58FILE "21 - Gabriel Yared - La sirene.wav" WAVE INDEX 01 00:00:00 TRACK 22 AUDIO TITLE "L'histoire continue ainsi" PERFORMER "Gabriel Yared" INDEX 00 02:12:63FILE "22 - Gabriel Yared - L'histoire continue ainsi.wav" WAVE INDEX 01 00:00:00 TRACK 23 AUDIO TITLE "L'arrestation" PERFORMER "Gabriel Yared" INDEX 00 01:57:53FILE "23 - Gabriel Yared - L'arrestation.wav" WAVE INDEX 01 00:00:00 TRACK 24 AUDIO TITLE "Le retour du Roi / Les 1001 Nuits" PERFORMER "Gabriel Yared" INDEX 00 01:17:63FILE "24 - Gabriel Yared - Le retour du Roi , Les 1001 Nuits.wav" WAVE INDEX 01 00:00:00 TRACK 25 AUDIO TITLE "Sheherazade" PERFORMER "Gabriel Yared" INDEX 00 02:26:61FILE "25 - Gabriel Yared - Sheherazade.wav" WAVE INDEX 01 00:00:00 TRACK 26 AUDIO TITLE "Le Roi acrobate" PERFORMER "Gabriel Yared" INDEX 00 04:04:58FILE "26 - Gabriel Yared - Le Roi acrobate.wav" WAVE INDEX 01 00:00:00 TRACK 27 AUDIO TITLE "Le tango du cheval" PERFORMER "Gabriel Yared" INDEX 00 02:09:01FILE "27 - Gabriel Yared - Le tango du cheval.wav" WAVE INDEX 01 00:00:00 TRACK 28 AUDIO TITLE "Le manege" PERFORMER "Gabriel Yared" INDEX 00 02:18:45FILE "28 - Gabriel Yared - Le manege.wav" WAVE INDEX 01 00:00:00 TRACK 29 AUDIO TITLE "Les 1001 Nuits - Repetition d'orchestre" PERFORMER "Gabriel Yared" INDEX 00 01:26:55FILE "29 - Gabriel Yared - Les 1001 Nuits - Repetition d'orchestre.wav" WAVE INDEX 01 00:00:00


Трекер:  [ 16-Мар-2015 21:00 ]

  

Скачать .torrent

Размер .torrent файла 11 KB


Размер: 404 MB
Хэш (hash) релиза: 1bc477532c276b9bfaedd6ee8b0d889f96889db6

Торренты, похожие на Тысяча и одна ночь Les 1001 nuits скачать торрент

Форум Название Автор Размер S L Добавлен
Саундтреки к фильмам и мультфильмам (mp3) ·· (Score) Тысяча и одна ночь / Les 1001 nuits (Gabriel Yared) - 2015 (1990), MP3 (tracks) 320 kbps Galfimbul 254331873243 MB 0 0 1426447133

22:18

15-Мар-15

Еще никто не оставлял запись к записи скачать торрент Тысяча и одна ночь Les 1001 nuits . Будь первым!

!Обратная связь