Скачать через торрент Охота на призраков В погоне за призраками бесплатно Аниме Все серии на русском torrent

Если у вас наблюдаются проблемы со скриншотами, переходом по ссылками, скачиванием торрентов - проблемы в блокировщике рекламы AdBlock. #хорошегоДня!


Статистика раздачи
Размер:  49.12 GB   |    Зарегистрирован:  2 года 6 месяцев   |    .torrent скачан:  40 раз   |   
Раздают:  1  
   
Загрузка...
 
Автор Сообщение

Galfimbul

avatar Galfimbul



Страна: Япония
Год выпуска: 2007
Жанр: мистика, ужасы, драма
Продолжительность: 22 эп. по 25 мин.
Выпуск: c 18.10.2007 по 04.04.2008
Режиссер: Накамура Рютаро
Студия: Production I.G.
Краткое содержание:
Таро Комори 14 лет. Он – сын владельца заводика по производству сакэ, живет в тихом провинциальном городе, учится в средней школе... Он был бы самым обычным школьником, если б не трагедия, омрачившая его жизнь одиннадцать лет назад: Таро и его сестренка были похищены. Злоумышленник требовал выкупа, но, по несчастной случайности, погиб прежде, чем получил деньги, или чем полиция задержала его. Никто не знал, где заложники, и, прежде чем детей нашли в заброшенном госпитале, девочка умерла. Трехлетний Таро выжил.
Детская травма жива в сновидениях Таро: он видит странные сны, в которых выходит из своего тела и снова и снова переживает те дни. Иногда сны становятся настолько отчетливыми, что Таро готов поверить, будто он на самом деле бывает в тех зловещих для него местах...© Анастасия Розанова, WA
Перевод:
<ol class="post-ul">
русские субтитры от Antravoco [1-15]
русские субтитры от Locky F Tornheimr [1-22]
русская многоголосая озвучка от МС Entertainment [1-22]
</ol>
Качество: BDRip
Энкод: [url=...mode=viewprofile&u=sergey366815]sergey_krs[/url]
Формат видео: mkv
Тип релиза: без хардсаба, без линковки
Видео: x264 (Hi10p), 1920x1080, 23.976 кадра/сек, ~11 Мбит/сек
Аудио JAP: FLAC, 48 кГц, 6 каналов, 16 бит, ~1 Мбит/сек
Аудио RUS: MP3, 48 кГц, 2 канала, 16 бит, ~320 Кбит/сек (внешними файлами) MVO
Общее
Уникальный идентификатор                 : 242537183379439627380602608473272894224 (0xB676F6607CC2DFB090DA60BBBD624310)
Полное имя                               : Ghost Hound - 01 [BDRip 1920x1080 x264 FLAC].mkv
Формат                                   : Matroska
Версия формата                           : Version 2
Размер файла                             : 2,09 Гбайт
Продолжительность                        : 25 м.
Режим общего битрейта                    : Переменный
Общий поток                              : 11,9 Мбит/сек
Дата кодирования                         : UTC 2013-04-01 11:05:02
Программа кодирования                    : mkvmerge v4.5.0 ('Speed of Light') сборка от Feb  1 2011 02:10:32
Библиотека кодирования                   : libebml v1.2.0 + libmatroska v1.1.0

Видео
Идентификатор                            : 1
Формат                                   : AVC
Формат/Информация                        : Advanced Video Codec
Профиль формата                          : High 10@L4.1
Параметр CABAC формата                   : Да
Параметр ReFrames формата                : 4 кадра
Идентификатор кодека                     : V_MPEG4/ISO/AVC
Продолжительность                        : 25 м.
Ширина                                   : 1920 пикселей
Высота                                   : 1080 пикселей
Соотношение сторон                       : 16:9
Режим частоты кадров                     : Постоянный
Частота кадров                           : 23,976 кадра/сек
Цветовое пространство                    : YUV
Субдискретизация насыщенности            : 4:2:0
Битовая глубина                          : 10 бит
Тип развёртки                            : Прогрессивная
Библиотека кодирования                   : x264 core 129 r2230 1cffe9f
Настройки программы                      : cabac=1 / ref=4 / deblock=1:-2:-2 / analyse=0x3:0x133 / me=umh / subme=9 / psy=1 / psy_rd=0.70:0.00 / mixed_ref=1 / me_range=32 / chroma_me=1 / trellis=2 / 8x8dct=1 / cqm=0 / deadzone=21,11 / fast_pskip=1 / chroma_qp_offset=-2 / threads=12 / lookahead_threads=2 / sliced_threads=0 / nr=0 / decimate=0 / interlaced=0 / bluray_compat=0 / constrained_intra=0 / bframes=8 / b_pyramid=2 / b_adapt=2 / b_bias=0 / direct=3 / weightb=1 / open_gop=0 / weightp=2 / keyint=240 / keyint_min=25 / scenecut=40 / intra_refresh=0 / rc=crf / mbtree=0 / crf=16.0 / qcomp=0.60 / qpmin=8 / qpmax=38 / qpstep=4 / ip_ratio=1.40 / pb_ratio=1.30 / aq=1:1.00
Язык                                     : Japanese
Default                                  : Да
Forced                                   : Нет

Аудио
Идентификатор                            : 2
Формат                                   : FLAC
Формат/Информация                        : Free Lossless Audio Codec
Идентификатор кодека                     : A_FLAC
Продолжительность                        : 25 м.
Вид битрейта                             : Переменный
Битрейт                                  : 1075 Кбит/сек
Каналы                                   : 6 каналов
Частота                                  : 48,0 КГц
Битовая глубина                          : 16 бит
Размер потока                            : 193 Мбайт (9%)
Библиотека кодирования                   : libFLAC 1.2.1 (UTC 2007-09-17)
Язык                                     : Japanese
Default                                  : Да
Forced                                   : Нет
Аудио RUS: MP3, 48 кГц, 2 канала, 16 бит, ~320 Кбит/сек (внешними файлами) MVO
Формат                                   : MPEG Audio
Размер файла                             : 57,5 Мбайт
Продолжительность                        : 25 м.
Режим общего битрейта                    : Постоянный
Общий поток                              : 320 Кбит/сек
Кодирование произвёл                     : Lavf51.12.1
Библиотека кодирования                   : LAME3.97

Аудио
Формат                                   : MPEG Audio
Версия формата                           : Version 1
Профиль формата                          : Layer 3
Режим                                    : Joint stereo
Расширение режима                        : MS Stereo
Продолжительность                        : 25 м.
Вид битрейта                             : Постоянный
Битрейт                                  : 320 Кбит/сек
Каналы                                   : 2 канала
Частота                                  : 48,0 КГц
Метод сжатия                             : С потерями
Размер потока                            : 57,5 Мбайт (100%)
Библиотека кодирования                   : LAME3.97
01. Lucid Dream
02. E.M.D.R. Eye Movement Desensitization and Reprocessing
03. Phobia Exposure
04. Altered States of Consciousness
05. O.B.E. Out of Body Experience
06. Brain Homunculus
07. L.T.P. Long Term Potentiation
08. Revolution of Limbic System
09. Existential Ghosts
10. Affordance / T.F.T. -Thought Field Therapy-
11. Syntax Error
12. Homeostasis Synchronization
13. For the Snark was a Boojum, You See
14. Emergence Matrix
15. Toward an Abandoned City
16. Hopeful Monster
17. Implicate Order
18. Holographic Paradigm
19. Negentropy
20. Shaman`s District
21. Stochastic Resonance
22. Passage

[url=...454774][22 из 22] [HDTVRip] [JAP+SUB] 1080p[/url]
[url=...535199][22 из 22] [HDTVRip] [JAP+SUB] 720p[/url]
[url=...1622373][16 из 22] [HDTVRip] [RUS(int),JAP+SUB] 720p[/url]
[url=...4147737][09 из 22] [HDTVRip] [RUS(int)] 1080p[/url]
[url=...4151548][22 из 22] [BDRip] [JAP+SUB] 720p[/url]

BDRip 1080p, русская озвучка, альтернативный перевод субтитров
[url=...454774]HDTV 1080p[/url]

[url=...4151548]BD 720p[/url]

BD 1080p

[url=...3682344]Как смотреть 10-битное видео (10bit)[/url]
Русские внешние субтитры от Antravoco
Переводчик: tori-ol, Редактор: Kilar, Оформление: Kpek
Русская внешняя многоголосая озвучка от МС Entertainment:
Озвучивание: DemonOFmooN, MezIdA, ProjectmaN
Тайминг: MezIdA
Работа со звуком: Solomon
SVO — (Single Voice Over) — Одноголосый
MVO — (Multi Voice Over) — Многоголосый


Трекер:  [ 16-Мар-2015 02:30 ]

  

Скачать .torrent

Размер .torrent файла 132 KB


Размер: 49.12 GB
Хэш (hash) релиза: e9559d2df10e4ae666f24be955a5d57e083fe08d
Подписка на обновления:

Еще никто не оставлял запись к записи скачать торрент Охота на призраков В погоне за призраками . Будь первым!

!Обратная связь