Скачать через торрент Лилии на ветру: Летние каникулы Yuruyuri Nachuyachumi! бесплатно Аниме Все серии на русском torrent

Если у вас наблюдаются проблемы со скриншотами, переходом по ссылками, скачиванием торрентов - проблемы в блокировщике рекламы AdBlock. #хорошегоДня!


Статистика раздачи
Размер:  945 MB   |    Зарегистрирован:  2 года 6 месяцев   |    .torrent скачан:  40 раз   |   
Раздают:  1  
   
Загрузка...
 
Автор Сообщение

Galfimbul

avatar Galfimbul


Лилии на ветру: Летние каникулы / Yuru Yuri Nachuyachumi!

Страна: Япония
Год выпуска: 2014 г.
Жанр: комедия, повседневность, сёдзё-ай
Тип: OVA
Продолжительность: 65 мин.
Режиссер: Хата Хироюки
Студия: TYO Animations

Описание: В центре сюжета – три обычных японских школьницы, которые занимают помещение клуба чайных церемоний и создают там клуб развлечений.

Качество: BDRip
Тип релиза: Без хардсаба
Формат видео: MР4
Наличие линковки: Нет
Релиз/Автор рипа: Ohys-Raws
Видео: H264, 1280x720, 8bits, 1258kbps, 23.976fps
Аудио: AAC, 2ch, 207kbps, 48kHz Язык Японский
Аудио2: AAC, 3ch, 432kbps, 48kHz Язык Японский (Комментарии)
Аудио3: AAC, 2ch, 161kbps, 48kHz Язык Японский (Комментарии)
Субтитры: ass, отдельным файлом Язык субтитров русский ; Перевод: Усатый Ня
Format : MPEG-4Format profile : Base MediaCodec ID : isomFile size : 945 MiBDuration : 1h 3mnOverall bit rate mode : VariableOverall bit rate : 2 065 Kbps

VideoID : 1Format : AVCFormat/Info : Advanced Video CodecFormat profile : Main@L4.1Format settings, CABAC : YesFormat settings, ReFrames : 4 framesCodec ID : avc1Codec ID/Info : Advanced Video CodingDuration : 1h 3mnBit rate : 1 258 KbpsMaximum bit rate : 10.6 MbpsWidth : 1 280 pixelsHeight : 720 pixelsDisplay aspect ratio : 16:9Frame rate mode : ConstantFrame rate : 23.976 fpsColor space : YUVChroma subsampling : 4:2:0Bit depth : 8 bitsScan type : ProgressiveBits/(Pixel*Frame) : 0.057Stream size : 575 MiB (61%)Encoding settings : cabac=1 / ref=3 / deblock=1:0:0 / analyse=0x1:0x111 / me=umh / subme=9 / psy=1 / fade_compensate=0.00 / psy_rd=1.00:0.00 / mixed_ref=1 / me_range=32 / chroma_me=1 / trellis=1 / 8x8dct=0 / cqm=0 / deadzone=21,11 / fast_pskip=1 / chroma_qp_offset=-2 / threads=8 / lookahead_threads=1 / sliced_threads=0 / nr=0 / decimate=1 / interlaced=0 / bluray_compat=0 / constrained_intra=0 / fgo=0 / bframes=16 / b_pyramid=2 / b_adapt=1 / b_bias=0 / direct=1 / weightb=1 / open_gop=0 / weightp=2 / keyint=240 / keyint_min=1 / scenecut=40 / intra_refresh=0 / rc_lookahead=40 / rc=crf / mbtree=1 / crf=17.0000 / qcomp=0.60 / qpmin=0 / qpmax=69 / qpstep=4 / ip_ratio=1.40 / aq=1:1.00

Audio #1ID : 2Format : AACFormat/Info : Advanced Audio CodecFormat profile : LCCodec ID : 40Duration : 1h 3mnBit rate mode : VariableBit rate : 207 KbpsMaximum bit rate : 258 KbpsChannel count : 2 channelsChannel positions : Front: L RSampling rate : 48.0 KHzCompression mode : LossyStream size : 94.8 MiB (10%)Language : Japanese

Audio #2ID : 3Format : AACFormat/Info : Advanced Audio CodecFormat profile : LCCodec ID : 40Duration : 1h 3mnBit rate mode : VariableBit rate : 432 KbpsMaximum bit rate : 519 KbpsChannel count : 3 channelsChannel positions : Front: L C RSampling rate : 48.0 KHzCompression mode : LossyStream size : 198 MiB (21%)Language : Japanese

Audio #3ID : 4Format : AACFormat/Info : Advanced Audio CodecFormat profile : LCCodec ID : 40Duration : 1h 3mnBit rate mode : VariableBit rate : 161 KbpsMaximum bit rate : 245 KbpsChannel count : 2 channelsChannel positions : Front: L RSampling rate : 48.0 KHzCompression mode : LossyStream size : 73.5 MiB (8%)Language : Japanese


Трекер:  [ 05-Мар-2015 20:00 ]

  

Скачать .torrent

Размер .torrent файла 19 KB


Размер: 945 MB
Хэш (hash) релиза: 80551e490ad51dae4902d6bf46b40841272e49c1
Подписка на обновления:

Торренты, похожие на Лилии на ветру: Летние каникулы Yuruyuri Nachuyachumi! скачать торрент

Форум Название Автор Размер S L Добавлен
Аниме | HD Rips ·· Лилии на ветру: Летние каникулы+ / Yuruyuri Nachuyachumi!+ / Yuru Yuri Nachuyachumi!+ (Хата Хироюки) [Special] [2 из 2] [без хардсаба] [JAP+SUB] [2015 г., комедия, повседневность, сёдзё-ай, BDRemux] [1080p] Galfimbul 1462871626313.62 GB 0 0 1449340336

21:32

5-Дек-15

Аниме | HD Rips ·· Лилии на ветру: Летние каникулы / Yuruyuri Nachuyachumi! / Yuru Yuri Nachuyachumi! (Хата Хироюки) [OVA] [1 из 1] [без хардсаба] [JAP+SUB] [2014 г., комедия, повседневность, сёдзё-ай, BDRip] [1080p] Galfimbul 36183920733.37 GB 0 0 1446722524

14:22

5-Ноя-15

Аниме | Rips ·· Лилии на ветру: Летние каникулы / Yuruyuri Nachuyachumi! / Yuru Yuri Nachuyachumi! (Хата Хироюки) [OVA] [1 из 1] [без хардсаба] [RUS(ext), JAP+SUB] [2014 г., комедия, повседневность, сёдзё-ай, BDRip] [1080p] Galfimbul 37111099113.46 GB 0 0 1446722514

14:21

5-Ноя-15

Аниме | HD Rips ·· Лилии на ветру: Летние каникулы / Yuruyuri Nachuyachumi! / Yuru Yuri Nachuyachumi! [OVA] [1 из 1] [Без хардсаба] [JAP+SUB] [2015 г., комедия, повседневность, сёдзё-ай, BDRemux] [1080p] Galfimbul 2107527196519.63 GB 0 0 1425818730

15:45

8-Мар-15

Еще никто не оставлял запись к записи скачать торрент Лилии на ветру: Летние каникулы Yuruyuri Nachuyachumi! . Будь первым!

!Обратная связь