Скачать через торрент музыку Наваждение Obsession бесплатно без регистрации torrent

Если у вас наблюдаются проблемы со скриншотами, переходом по ссылками, скачиванием торрентов - проблемы в блокировщике рекламы AdBlock. #хорошегоДня!


Статистика раздачи
Размер:  645 MB   |    Зарегистрирован:  2 года 7 месяцев   |    .torrent скачан:  40 раз   |   
Раздают:  1  
   
Загрузка...
 
Автор Сообщение

Galfimbul

avatar Galfimbul


Наваждение / Obsession (Limited Edition, 2 CD)
Жанр: Score
Композитор: Bernard Herrmann
Год выпуска диска: 2015
Год выпуска фильма: 1976
Производитель диска: SNA, France
Издатель (лейбл): Music Box Records
Номер по каталогу: MBR-060
Аудиокодек: FLAC (*.flac)
Тип рипа: tracks+.cue
Битрейт аудио: lossless
Продолжительность: 01:13:55 + 00:39:04 = 01:52:59
Источник: собственный рип
Наличие сканов в содержимом раздачи: да, 600 dpi
MP3: [url=...4954769](Score) Наваждение / Obsession (Bernard Herrmann) - 2015 (1976), MP3 (tracks) 320 kbps[/url]
CD 1 - The Film Score:
01. Main Title [0:02:00.04]
02. Opening Party [0:00:42.18]
03. Valse Lente [0:01:35.09]
04. Kidnap [0:02:34.31]
05. Newsboy [0:01:45.54]
06. The Tape [0:00:29.71]
07. The Ferry [0:02:43.43]
08. Hideout [0:00:48.57]
09. Breakout [0:01:36.28]
10. The Tomb [0:01:16.09]
11. Memorial Park [0:01:21.25]
12. Sandra [0:06:46.41]
13. Sandra Again [0:01:00.23]
14. Court Meets Sandra [0:01:26.49]
15. The Church [0:01:27.62]
16. Bryn Mawr [0:02:06.45]
17. Bryn Mawr Walk [0:01:18.69]
18. Court's Confession [0:02:31.13]
19. Hospital [0:00:46.24]
20. Cemetery [0:01:06.33]
21. New Orleans [0:01:56.50]
22. Walk Down Hallway [0:01:09.23]
23. Portrait of Elizabeth [0:01:51.18]
24. Memorabilia [0:02:56.03]
25. Walk to Church [0:00:14.26]
26. Sandra at Monument [0:03:01.24]
27. After Dinner [0:00:48.15]
28. The Wedding [0:02:35.24]
29. The Wedding Part II [0:01:33.05]
30. Court, The Morning After [0:01:35.28]
31. Court Signs Papers [0:01:34.11]
32. Sandra Finds Briefcase [0:02:27.36]
33. Court Arrives at Wharf [0:00:43.33]
34. LaSalle and Sandra at Airport [0:02:04.12]
35. The Plane [0:02:23.60]
36. Court Finds LaSalle [0:02:04.10]
37. Court and LaSalle Struggle [0:01:08.34]
38. Airport [0:03:54.71]
39. Ransom (Unused Cue) [0:00:20.42]
40. Past and Present (Unused Cue) [0:00:30.25]
41. Airport (Alternate) [0:03:41.45]

CD 2 - The Original Soundtrack:
01. Main Title / Valse Lente / Kidnap [0:06:00.29]
02. Newsboy / The Tape / The Ferry [0:04:59.30]
03. The Tomb / Sandra [0:08:06.18]
04. The Church / Court's Confession / Bryn Mawr [0:09:27.09]
05. New Orleans / Wedding / Court - The Morning After [0:04:33.47]
06. The Plane / Court and La Salle's Struggle / Airport [0:05:58.19]
Exact Audio Copy V1.0 beta 3 from 29. August 2011

EAC extraction logfile from 4. March 2015, 22:18

Bernard Herrmann / Obsession (The Film Score)

Used drive : PLEXTOR CD-R PX-230A Adapter: 2 ID: 0

Read mode : SecureUtilize accurate stream : YesDefeat audio cache : YesMake use of C2 pointers : No

Read offset correction : 738Overread into Lead-In and Lead-Out : NoFill up missing offset samples with silence : YesDelete leading and trailing silent blocks : NoNull samples used in CRC calculations : YesUsed interface : Native Win32 interface for Win NT & 2000Gap handling : Appended to previous track

Used output format : User Defined EncoderSelected bitrate : 768 kBit/sQuality : HighAdd ID3 tag : NoCommand line compressor : C:\Program Files (x86)\Exact Audio Copy\FLAC\FLAC.EXEAdditional command line options : -6 -V -T "ARTIST=%artist%" -T "TITLE=%title%" -T "ALBUM=%albumtitle%" -T "DATE=%year%" -T "TRACKNUMBER=%tracknr%" -T "GENRE=%genre%" -T "COMMENT=%comment%" -T "ALBUMARTIST=%albuminterpret%" -T "COMPOSER=%composer%" -T "DISCNUMBER=%cdnumber%" -T "TOTALDISCS=%totalcds%" -T "TOTALTRACKS=%numtracks%" %source% -o %dest%

TOC of the extracted CD

Track | Start | Length | Start sector | End sector --------------------------------------------------------- 1 | 0:00.00 | 2:00.04 | 0 | 9003 2 | 2:00.04 | 0:42.18 | 9004 | 12171 3 | 2:42.22 | 1:35.09 | 12172 | 19305 4 | 4:17.31 | 2:34.31 | 19306 | 30886 5 | 6:51.62 | 1:45.54 | 30887 | 38815 6 | 8:37.41 | 0:29.71 | 38816 | 41061 7 | 9:07.37 | 2:43.43 | 41062 | 53329 8 | 11:51.05 | 0:48.57 | 53330 | 56986 9 | 12:39.62 | 1:36.28 | 56987 | 64214 10 | 14:16.15 | 1:16.09 | 64215 | 69923 11 | 15:32.24 | 1:21.25 | 69924 | 76023 12 | 16:53.49 | 6:46.41 | 76024 | 106514 13 | 23:40.15 | 1:00.23 | 106515 | 111037 14 | 24:40.38 | 1:26.49 | 111038 | 117536 15 | 26:07.12 | 1:27.62 | 117537 | 124123 16 | 27:34.74 | 2:06.45 | 124124 | 133618 17 | 29:41.44 | 1:18.69 | 133619 | 139537 18 | 31:00.38 | 2:31.13 | 139538 | 150875 19 | 33:31.51 | 0:46.24 | 150876 | 154349 20 | 34:18.00 | 1:06.33 | 154350 | 159332 21 | 35:24.33 | 1:56.50 | 159333 | 168082 22 | 37:21.08 | 1:09.23 | 168083 | 173280 23 | 38:30.31 | 1:51.18 | 173281 | 181623 24 | 40:21.49 | 2:56.03 | 181624 | 194826 25 | 43:17.52 | 0:14.26 | 194827 | 195902 26 | 43:32.03 | 3:01.24 | 195903 | 209501 27 | 46:33.27 | 0:48.15 | 209502 | 213116 28 | 47:21.42 | 2:35.24 | 213117 | 224765 29 | 49:56.66 | 1:33.05 | 224766 | 231745 30 | 51:29.71 | 1:35.28 | 231746 | 238898 31 | 53:05.24 | 1:34.11 | 238899 | 245959 32 | 54:39.35 | 2:27.36 | 245960 | 257020 33 | 57:06.71 | 0:43.33 | 257021 | 260278 34 | 57:50.29 | 2:04.12 | 260279 | 269590 35 | 59:54.41 | 2:23.60 | 269591 | 280375 36 | 62:18.26 | 2:04.10 | 280376 | 289685 37 | 64:22.36 | 1:08.34 | 289686 | 294819 38 | 65:30.70 | 3:54.71 | 294820 | 312440 39 | 69:25.66 | 0:20.42 | 312441 | 313982 40 | 69:46.33 | 0:30.25 | 313983 | 316257 41 | 70:16.58 | 3:41.45 | 316258 | 332877

Track 1

Filename C:\Music\01 - Bernard Herrmann - Main Title.wav

Pre-gap length 0:00:02.00

Peak level 98.4 % Extraction speed 4.8 X Track quality 100.0 % Test CRC 3D11172B Copy CRC 3D11172B Track not present in AccurateRip database Copy OK

Track 2

Filename C:\Music\02 - Bernard Herrmann - Opening Party.wav

Pre-gap length 0:00:02.00

Peak level 88.7 % Extraction speed 3.7 X Track quality 100.0 % Test CRC B7EC6B5D Copy CRC B7EC6B5D Track not present in AccurateRip database Copy OK

Track 3

Filename C:\Music\03 - Bernard Herrmann - Valse Lente.wav

Pre-gap length 0:00:02.00

Peak level 57.2 % Extraction speed 5.0 X Track quality 100.0 % Test CRC 27E84342 Copy CRC 27E84342 Track not present in AccurateRip database Copy OK

Track 4

Filename C:\Music\04 - Bernard Herrmann - Kidnap.wav

Pre-gap length 0:00:02.00

Peak level 98.4 % Extraction speed 5.7 X Track quality 100.0 % Test CRC D12F252B Copy CRC D12F252B Track not present in AccurateRip database Copy OK

Track 5

Filename C:\Music\05 - Bernard Herrmann - Newsboy.wav

Pre-gap length 0:00:02.00

Peak level 22.9 % Extraction speed 5.5 X Track quality 100.0 % Test CRC 2F64AE3D Copy CRC 2F64AE3D Track not present in AccurateRip database Copy OK

Track 6

Filename C:\Music\06 - Bernard Herrmann - The Tape.wav

Peak level 96.6 % Extraction speed 3.6 X Track quality 100.0 % Test CRC 7500C7B0 Copy CRC 7500C7B0 Track not present in AccurateRip database Copy OK

Track 7

Filename C:\Music\07 - Bernard Herrmann - The Ferry.wav

Peak level 98.3 % Extraction speed 6.4 X Track quality 100.0 % Test CRC C7C622A8 Copy CRC C7C622A8 Track not present in AccurateRip database Copy OK

Track 8

Filename C:\Music\08 - Bernard Herrmann - Hideout.wav

Pre-gap length 0:00:01.00

Peak level 79.0 % Extraction speed 3.3 X Track quality 99.7 % Test CRC 3D9F002C Copy CRC 3D9F002C Track not present in AccurateRip database Copy OK

Track 9

Filename C:\Music\09 - Bernard Herrmann - Breakout.wav

Pre-gap length 0:00:02.00

Peak level 92.7 % Extraction speed 6.0 X Track quality 100.0 % Test CRC 72B7073F Copy CRC 72B7073F Track not present in AccurateRip database Copy OK

Track 10

Filename C:\Music\10 - Bernard Herrmann - The Tomb.wav

Pre-gap length 0:00:02.00

Peak level 67.9 % Extraction speed 5.6 X Track quality 100.0 % Test CRC B6E57727 Copy CRC B6E57727 Track not present in AccurateRip database Copy OK

Track 11

Filename C:\Music\11 - Bernard Herrmann - Memorial Park.wav

Peak level 73.9 % Extraction speed 4.3 X Track quality 99.8 % Test CRC 18489317 Copy CRC 18489317 Track not present in AccurateRip database Copy OK

Track 12

Filename C:\Music\12 - Bernard Herrmann - Sandra.wav

Pre-gap length 0:00:02.00

Peak level 98.9 % Extraction speed 7.9 X Track quality 100.0 % Test CRC C4DD827D Copy CRC C4DD827D Track not present in AccurateRip database Copy OK

Track 13

Filename C:\Music\13 - Bernard Herrmann - Sandra Again.wav

Pre-gap length 0:00:02.00

Peak level 38.0 % Extraction speed 5.7 X Track quality 100.0 % Test CRC C78F4C5A Copy CRC C78F4C5A Track not present in AccurateRip database Copy OK

Track 14

Filename C:\Music\14 - Bernard Herrmann - Court Meets Sandra.wav

Pre-gap length 0:00:02.00

Peak level 29.8 % Extraction speed 4.6 X Track quality 99.8 % Test CRC C3A08137 Copy CRC C3A08137 Track not present in AccurateRip database Copy OK

Track 15

Filename C:\Music\15 - Bernard Herrmann - The Church.wav

Pre-gap length 0:00:02.00

Peak level 37.0 % Extraction speed 6.8 X Track quality 100.0 % Test CRC 8FC10A7B Copy CRC 8FC10A7B Track not present in AccurateRip database Copy OK

Track 16

Filename C:\Music\16 - Bernard Herrmann - Bryn Mawr.wav

Pre-gap length 0:00:01.00

Peak level 40.7 % Extraction speed 7.2 X Track quality 100.0 % Test CRC 90E09F88 Copy CRC 90E09F88 Track not present in AccurateRip database Copy OK

Track 17

Filename C:\Music\17 - Bernard Herrmann - Bryn Mawr Walk.wav

Pre-gap length 0:00:02.00

Peak level 49.9 % Extraction speed 6.8 X Track quality 100.0 % Test CRC 026D86D0 Copy CRC 026D86D0 Track not present in AccurateRip database Copy OK

Track 18

Filename C:\Music\18 - Bernard Herrmann - Court's Confession.wav

Pre-gap length 0:00:02.00

Peak level 44.5 % Extraction speed 7.9 X Track quality 100.0 % Test CRC AE5EC331 Copy CRC AE5EC331 Track not present in AccurateRip database Copy OK

Track 19

Filename C:\Music\19 - Bernard Herrmann - Hospital.wav

Pre-gap length 0:00:02.00

Peak level 38.8 % Extraction speed 5.8 X Track quality 100.0 % Test CRC 15C98F57 Copy CRC 15C98F57 Track not present in AccurateRip database Copy OK

Track 20

Filename C:\Music\20 - Bernard Herrmann - Cemetery.wav

Pre-gap length 0:00:02.00

Peak level 40.4 % Extraction speed 6.5 X Track quality 100.0 % Test CRC 751FB3B5 Copy CRC 751FB3B5 Track not present in AccurateRip database Copy OK

Track 21

Filename C:\Music\21 - Bernard Herrmann - New Orleans.wav

Pre-gap length 0:00:02.00

Peak level 79.1 % Extraction speed 7.7 X Track quality 100.0 % Test CRC F93F1F3A Copy CRC F93F1F3A Track not present in AccurateRip database Copy OK

Track 22

Filename C:\Music\22 - Bernard Herrmann - Walk Down Hallway.wav

Pre-gap length 0:00:02.00

Peak level 33.8 % Extraction speed 7.0 X Track quality 100.0 % Test CRC ECA04A8C Copy CRC ECA04A8C Track not present in AccurateRip database Copy OK

Track 23

Filename C:\Music\23 - Bernard Herrmann - Portrait of Elizabeth.wav

Pre-gap length 0:00:02.00

Peak level 50.6 % Extraction speed 5.7 X Track quality 99.9 % Test CRC AAFB646C Copy CRC AAFB646C Track not present in AccurateRip database Copy OK

Track 24

Filename C:\Music\24 - Bernard Herrmann - Memorabilia.wav

Pre-gap length 0:00:02.00

Peak level 44.8 % Extraction speed 8.6 X Track quality 100.0 % Test CRC EF8625DF Copy CRC EF8625DF Track not present in AccurateRip database Copy OK

Track 25

Filename C:\Music\25 - Bernard Herrmann - Walk to Church.wav

Pre-gap length 0:00:02.00

Peak level 38.9 % Extraction speed 3.2 X Track quality 100.0 % Test CRC 1B6ACB86 Copy CRC 1B6ACB86 Track not present in AccurateRip database Copy OK

Track 26

Filename C:\Music\26 - Bernard Herrmann - Sandra at Monument.wav

Pre-gap length 0:00:02.00

Peak level 66.2 % Extraction speed 8.8 X Track quality 100.0 % Test CRC 81A60E74 Copy CRC 81A60E74 Track not present in AccurateRip database Copy OK

Track 27

Filename C:\Music\27 - Bernard Herrmann - After Dinner.wav

Pre-gap length 0:00:02.00

Peak level 29.9 % Extraction speed 6.3 X Track quality 100.0 % Test CRC 9BDE44D8 Copy CRC 9BDE44D8 Track not present in AccurateRip database Copy OK

Track 28

Filename C:\Music\28 - Bernard Herrmann - The Wedding.wav

Pre-gap length 0:00:02.00

Peak level 69.3 % Extraction speed 8.8 X Track quality 100.0 % Test CRC B58FD382 Copy CRC B58FD382 Track not present in AccurateRip database Copy OK

Track 29

Filename C:\Music\29 - Bernard Herrmann - The Wedding Part II.wav

Pre-gap length 0:00:02.00

Peak level 35.2 % Extraction speed 8.0 X Track quality 100.0 % Test CRC A3738261 Copy CRC A3738261 Track not present in AccurateRip database Copy OK

Track 30

Filename C:\Music\30 - Bernard Herrmann - Court, The Morning After.wav

Pre-gap length 0:00:02.00

Peak level 61.8 % Extraction speed 8.1 X Track quality 100.0 % Test CRC 469FC49B Copy CRC 469FC49B Track not present in AccurateRip database Copy OK

Track 31

Filename C:\Music\31 - Bernard Herrmann - Court Signs Papers.wav

Pre-gap length 0:00:02.00

Peak level 47.6 % Extraction speed 8.1 X Track quality 100.0 % Test CRC 11ED6769 Copy CRC 11ED6769 Track not present in AccurateRip database Copy OK

Track 32

Filename C:\Music\32 - Bernard Herrmann - Sandra Finds Briefcase.wav

Peak level 93.7 % Extraction speed 9.0 X Track quality 100.0 % Test CRC 05D0B949 Copy CRC 05D0B949 Track not present in AccurateRip database Copy OK

Track 33

Filename C:\Music\33 - Bernard Herrmann - Court Arrives at Wharf.wav

Pre-gap length 0:00:02.00

Peak level 87.7 % Extraction speed 6.5 X Track quality 100.0 % Test CRC AEF8D79F Copy CRC AEF8D79F Track not present in AccurateRip database Copy OK

Track 34

Filename C:\Music\34 - Bernard Herrmann - LaSalle and Sandra at Airport.wav

Pre-gap length 0:00:02.00

Peak level 75.9 % Extraction speed 6.7 X Track quality 99.9 % Test CRC 7A11DE16 Copy CRC 7A11DE16 Track not present in AccurateRip database Copy OK

Track 35

Filename C:\Music\35 - Bernard Herrmann - The Plane.wav

Pre-gap length 0:00:02.00

Peak level 87.7 % Extraction speed 9.3 X Track quality 100.0 % Test CRC B4EB4201 Copy CRC B4EB4201 Track not present in AccurateRip database Copy OK

Track 36

Filename C:\Music\36 - Bernard Herrmann - Court Finds LaSalle.wav

Pre-gap length 0:00:02.00

Peak level 71.1 % Extraction speed 6.8 X Track quality 99.9 % Test CRC 90FAD581 Copy CRC 90FAD581 Track not present in AccurateRip database Copy OK

Track 37

Filename C:\Music\37 - Bernard Herrmann - Court and LaSalle Struggle.wav

Pre-gap length 0:00:02.00

Peak level 91.8 % Extraction speed 7.9 X Track quality 100.0 % Test CRC 58D2A6F4 Copy CRC 58D2A6F4 Track not present in AccurateRip database Copy OK

Track 38

Filename C:\Music\38 - Bernard Herrmann - Airport.wav

Pre-gap length 0:00:02.00

Peak level 96.0 % Extraction speed 10.5 X Track quality 100.0 % Test CRC DAE9ACB0 Copy CRC DAE9ACB0 Track not present in AccurateRip database Copy OK

Track 39

Filename C:\Music\39 - Bernard Herrmann - Ransom (Unused Cue).wav

Pre-gap length 0:00:04.00

Peak level 50.9 % Extraction speed 2.2 X Track quality 99.4 % Test CRC 6F3F831B Copy CRC 6F3F831B Track not present in AccurateRip database Copy OK

Track 40

Filename C:\Music\40 - Bernard Herrmann - Past and Present (Unused Cue).wav

Pre-gap length 0:00:02.00

Peak level 46.1 % Extraction speed 6.0 X Track quality 100.0 % Test CRC 6B1B2101 Copy CRC 6B1B2101 Track not present in AccurateRip database Copy OK

Track 41

Filename C:\Music\41 - Bernard Herrmann - Airport (Alternate).wav

Pre-gap length 0:00:02.00

Peak level 98.6 % Extraction speed 10.3 X Track quality 100.0 % Test CRC 75DD4525 Copy CRC 75DD4525 Track not present in AccurateRip database Copy OK

None of the tracks are present in the AccurateRip database

No errors occurred

End of status report

==== Log checksum 01CD17D7D845D7240C0141E01B0A3B622AF9C585EF19FEDAE309B42A7E3D6C5A ====
Exact Audio Copy V1.0 beta 3 from 29. August 2011

EAC extraction logfile from 4. March 2015, 23:32

Bernard Herrmann / Obsession (The Original Soundtrack)

Used drive : PLEXTOR CD-R PX-230A Adapter: 2 ID: 0

Read mode : SecureUtilize accurate stream : YesDefeat audio cache : YesMake use of C2 pointers : No

Read offset correction : 738Overread into Lead-In and Lead-Out : NoFill up missing offset samples with silence : YesDelete leading and trailing silent blocks : NoNull samples used in CRC calculations : YesUsed interface : Native Win32 interface for Win NT & 2000Gap handling : Appended to previous track

Used output format : User Defined EncoderSelected bitrate : 768 kBit/sQuality : HighAdd ID3 tag : NoCommand line compressor : C:\Program Files (x86)\Exact Audio Copy\FLAC\FLAC.EXEAdditional command line options : -6 -V -T "ARTIST=%artist%" -T "TITLE=%title%" -T "ALBUM=%albumtitle%" -T "DATE=%year%" -T "TRACKNUMBER=%tracknr%" -T "GENRE=%genre%" -T "COMMENT=%comment%" -T "ALBUMARTIST=%albuminterpret%" -T "COMPOSER=%composer%" -T "DISCNUMBER=%cdnumber%" -T "TOTALDISCS=%totalcds%" -T "TOTALTRACKS=%numtracks%" %source% -o %dest%

TOC of the extracted CD

Track | Start | Length | Start sector | End sector --------------------------------------------------------- 1 | 0:00.00 | 6:00.29 | 0 | 27028 2 | 6:00.29 | 4:59.30 | 27029 | 49483 3 | 10:59.59 | 8:06.18 | 49484 | 85951 4 | 19:06.02 | 9:27.09 | 85952 | 128485 5 | 28:33.11 | 4:33.47 | 128486 | 149007 6 | 33:06.58 | 5:58.19 | 149008 | 175876

Track 1

Filename C:\Music\01 - Bernard Herrmann - Main Title , Valse Lente , Kidnap.wav

Pre-gap length 0:00:02.00

Peak level 88.6 % Extraction speed 5.5 X Track quality 100.0 % Test CRC F18B650B Copy CRC F18B650B Track not present in AccurateRip database Copy OK

Track 2

Filename C:\Music\02 - Bernard Herrmann - Newsboy , The Tape , The Ferry.wav

Pre-gap length 0:00:02.00

Peak level 98.4 % Extraction speed 5.6 X Track quality 100.0 % Test CRC DAD76A25 Copy CRC DAD76A25 Track not present in AccurateRip database Copy OK

Track 3

Filename C:\Music\03 - Bernard Herrmann - The Tomb , Sandra.wav

Pre-gap length 0:00:02.00

Peak level 86.1 % Extraction speed 5.8 X Track quality 100.0 % Test CRC C9A68603 Copy CRC C9A68603 Track not present in AccurateRip database Copy OK

Track 4

Filename C:\Music\04 - Bernard Herrmann - The Church , Court's Confession , Bryn Mawr.wav

Pre-gap length 0:00:02.00

Peak level 75.6 % Extraction speed 5.8 X Track quality 100.0 % Test CRC F1BD179D Copy CRC F1BD179D Track not present in AccurateRip database Copy OK

Track 5

Filename C:\Music\05 - Bernard Herrmann - New Orleans , Wedding , Court - The Morning After.wav

Pre-gap length 0:00:02.00

Peak level 98.4 % Extraction speed 5.4 X Track quality 100.0 % Test CRC F338653C Copy CRC F338653C Track not present in AccurateRip database Copy OK

Track 6

Filename C:\Music\06 - Bernard Herrmann - The Plane , Court and La Salle's Struggle , Airport.wav

Pre-gap length 0:00:02.00

Peak level 97.4 % Extraction speed 5.0 X Track quality 99.9 % Test CRC D1487F5A Copy CRC D1487F5A Track not present in AccurateRip database Copy OK

None of the tracks are present in the AccurateRip database

No errors occurred

End of status report

==== Log checksum 5862659CD351B9920DBF47E98246E054608F24865578E328E8349A6325B68094 ====
REM GENRE SoundtrackREM DATE 1976REM DISCID 66115629REM COMMENT "ExactAudioCopy v1.0b3"PERFORMER "Bernard Herrmann"TITLE "Obsession (The Film Score)"FILE "01 - Bernard Herrmann - Main Title.wav" WAVE TRACK 01 AUDIO TITLE "Main Title" PERFORMER "Bernard Herrmann" INDEX 01 00:00:00 TRACK 02 AUDIO TITLE "Opening Party" PERFORMER "Bernard Herrmann" INDEX 00 01:58:04FILE "02 - Bernard Herrmann - Opening Party.wav" WAVE INDEX 01 00:00:00 TRACK 03 AUDIO TITLE "Valse Lente" PERFORMER "Bernard Herrmann" INDEX 00 00:40:18FILE "03 - Bernard Herrmann - Valse Lente.wav" WAVE INDEX 01 00:00:00 TRACK 04 AUDIO TITLE "Kidnap" PERFORMER "Bernard Herrmann" INDEX 00 01:33:09FILE "04 - Bernard Herrmann - Kidnap.wav" WAVE INDEX 01 00:00:00 TRACK 05 AUDIO TITLE "Newsboy" PERFORMER "Bernard Herrmann" INDEX 00 02:32:31FILE "05 - Bernard Herrmann - Newsboy.wav" WAVE INDEX 01 00:00:00FILE "06 - Bernard Herrmann - The Tape.wav" WAVE TRACK 06 AUDIO TITLE "The Tape" PERFORMER "Bernard Herrmann" INDEX 01 00:00:00FILE "07 - Bernard Herrmann - The Ferry.wav" WAVE TRACK 07 AUDIO TITLE "The Ferry" PERFORMER "Bernard Herrmann" INDEX 01 00:00:00 TRACK 08 AUDIO TITLE "Hideout" PERFORMER "Bernard Herrmann" INDEX 00 02:42:43FILE "08 - Bernard Herrmann - Hideout.wav" WAVE INDEX 01 00:00:00 TRACK 09 AUDIO TITLE "Breakout" PERFORMER "Bernard Herrmann" INDEX 00 00:46:57FILE "09 - Bernard Herrmann - Breakout.wav" WAVE INDEX 01 00:00:00 TRACK 10 AUDIO TITLE "The Tomb" PERFORMER "Bernard Herrmann" INDEX 00 01:34:28FILE "10 - Bernard Herrmann - The Tomb.wav" WAVE INDEX 01 00:00:00FILE "11 - Bernard Herrmann - Memorial Park.wav" WAVE TRACK 11 AUDIO TITLE "Memorial Park" PERFORMER "Bernard Herrmann" INDEX 01 00:00:00 TRACK 12 AUDIO TITLE "Sandra" PERFORMER "Bernard Herrmann" INDEX 00 01:19:25FILE "12 - Bernard Herrmann - Sandra.wav" WAVE INDEX 01 00:00:00 TRACK 13 AUDIO TITLE "Sandra Again" PERFORMER "Bernard Herrmann" INDEX 00 06:44:41FILE "13 - Bernard Herrmann - Sandra Again.wav" WAVE INDEX 01 00:00:00 TRACK 14 AUDIO TITLE "Court Meets Sandra" PERFORMER "Bernard Herrmann" INDEX 00 00:58:23FILE "14 - Bernard Herrmann - Court Meets Sandra.wav" WAVE INDEX 01 00:00:00 TRACK 15 AUDIO TITLE "The Church" PERFORMER "Bernard Herrmann" INDEX 00 01:24:49FILE "15 - Bernard Herrmann - The Church.wav" WAVE INDEX 01 00:00:00 TRACK 16 AUDIO TITLE "Bryn Mawr" PERFORMER "Bernard Herrmann" INDEX 00 01:26:62FILE "16 - Bernard Herrmann - Bryn Mawr.wav" WAVE INDEX 01 00:00:00 TRACK 17 AUDIO TITLE "Bryn Mawr Walk" PERFORMER "Bernard Herrmann" INDEX 00 02:04:45FILE "17 - Bernard Herrmann - Bryn Mawr Walk.wav" WAVE INDEX 01 00:00:00 TRACK 18 AUDIO TITLE "Court's Confession" PERFORMER "Bernard Herrmann" INDEX 00 01:16:69FILE "18 - Bernard Herrmann - Court's Confession.wav" WAVE INDEX 01 00:00:00 TRACK 19 AUDIO TITLE "Hospital" PERFORMER "Bernard Herrmann" INDEX 00 02:29:13FILE "19 - Bernard Herrmann - Hospital.wav" WAVE INDEX 01 00:00:00 TRACK 20 AUDIO TITLE "Cemetery" PERFORMER "Bernard Herrmann" INDEX 00 00:44:24FILE "20 - Bernard Herrmann - Cemetery.wav" WAVE INDEX 01 00:00:00 TRACK 21 AUDIO TITLE "New Orleans" PERFORMER "Bernard Herrmann" INDEX 00 01:04:33FILE "21 - Bernard Herrmann - New Orleans.wav" WAVE INDEX 01 00:00:00 TRACK 22 AUDIO TITLE "Walk Down Hallway" PERFORMER "Bernard Herrmann" INDEX 00 01:54:50FILE "22 - Bernard Herrmann - Walk Down Hallway.wav" WAVE INDEX 01 00:00:00 TRACK 23 AUDIO TITLE "Portrait of Elizabeth" PERFORMER "Bernard Herrmann" INDEX 00 01:07:23FILE "23 - Bernard Herrmann - Portrait of Elizabeth.wav" WAVE INDEX 01 00:00:00 TRACK 24 AUDIO TITLE "Memorabilia" PERFORMER "Bernard Herrmann" INDEX 00 01:49:18FILE "24 - Bernard Herrmann - Memorabilia.wav" WAVE INDEX 01 00:00:00 TRACK 25 AUDIO TITLE "Walk to Church" PERFORMER "Bernard Herrmann" INDEX 00 02:54:03FILE "25 - Bernard Herrmann - Walk to Church.wav" WAVE INDEX 01 00:00:00 TRACK 26 AUDIO TITLE "Sandra at Monument" PERFORMER "Bernard Herrmann" INDEX 00 00:12:26FILE "26 - Bernard Herrmann - Sandra at Monument.wav" WAVE INDEX 01 00:00:00 TRACK 27 AUDIO TITLE "After Dinner" PERFORMER "Bernard Herrmann" INDEX 00 02:59:24FILE "27 - Bernard Herrmann - After Dinner.wav" WAVE INDEX 01 00:00:00 TRACK 28 AUDIO TITLE "The Wedding" PERFORMER "Bernard Herrmann" INDEX 00 00:46:15FILE "28 - Bernard Herrmann - The Wedding.wav" WAVE INDEX 01 00:00:00 TRACK 29 AUDIO TITLE "The Wedding Part II" PERFORMER "Bernard Herrmann" INDEX 00 02:33:24FILE "29 - Bernard Herrmann - The Wedding Part II.wav" WAVE INDEX 01 00:00:00 TRACK 30 AUDIO TITLE "Court, The Morning After" PERFORMER "Bernard Herrmann" INDEX 00 01:31:05FILE "30 - Bernard Herrmann - Court, The Morning After.wav" WAVE INDEX 01 00:00:00 TRACK 31 AUDIO TITLE "Court Signs Papers" PERFORMER "Bernard Herrmann" INDEX 00 01:33:28FILE "31 - Bernard Herrmann - Court Signs Papers.wav" WAVE INDEX 01 00:00:00FILE "32 - Bernard Herrmann - Sandra Finds Briefcase.wav" WAVE TRACK 32 AUDIO TITLE "Sandra Finds Briefcase" PERFORMER "Bernard Herrmann" INDEX 01 00:00:00 TRACK 33 AUDIO TITLE "Court Arrives at Wharf" PERFORMER "Bernard Herrmann" INDEX 00 02:25:36FILE "33 - Bernard Herrmann - Court Arrives at Wharf.wav" WAVE INDEX 01 00:00:00 TRACK 34 AUDIO TITLE "LaSalle and Sandra at Airport" PERFORMER "Bernard Herrmann" INDEX 00 00:41:33FILE "34 - Bernard Herrmann - LaSalle and Sandra at Airport.wav" WAVE INDEX 01 00:00:00 TRACK 35 AUDIO TITLE "The Plane" PERFORMER "Bernard Herrmann" INDEX 00 02:02:12FILE "35 - Bernard Herrmann - The Plane.wav" WAVE INDEX 01 00:00:00 TRACK 36 AUDIO TITLE "Court Finds LaSalle" PERFORMER "Bernard Herrmann" INDEX 00 02:21:60FILE "36 - Bernard Herrmann - Court Finds LaSalle.wav" WAVE INDEX 01 00:00:00 TRACK 37 AUDIO TITLE "Court and LaSalle Struggle" PERFORMER "Bernard Herrmann" INDEX 00 02:02:10FILE "37 - Bernard Herrmann - Court and LaSalle Struggle.wav" WAVE INDEX 01 00:00:00 TRACK 38 AUDIO TITLE "Airport" PERFORMER "Bernard Herrmann" INDEX 00 01:06:34FILE "38 - Bernard Herrmann - Airport.wav" WAVE INDEX 01 00:00:00 TRACK 39 AUDIO TITLE "Ransom (Unused Cue)" PERFORMER "Bernard Herrmann" INDEX 00 03:50:71FILE "39 - Bernard Herrmann - Ransom (Unused Cue).wav" WAVE INDEX 01 00:00:00 TRACK 40 AUDIO TITLE "Past and Present (Unused Cue)" PERFORMER "Bernard Herrmann" INDEX 00 00:18:42FILE "40 - Bernard Herrmann - Past and Present (Unused Cue).wav" WAVE INDEX 01 00:00:00 TRACK 41 AUDIO TITLE "Airport (Alternate)" PERFORMER "Bernard Herrmann" INDEX 00 00:28:25FILE "41 - Bernard Herrmann - Airport (Alternate).wav" WAVE INDEX 01 00:00:00
REM GENRE SoundtrackREM DATE 1976REM DISCID 50092906REM COMMENT "ExactAudioCopy v1.0b3"PERFORMER "Bernard Herrmann"TITLE "Obsession (The Original Soundtrack)"FILE "01 - Bernard Herrmann - Main Title , Valse Lente , Kidnap.wav" WAVE TRACK 01 AUDIO TITLE "Main Title / Valse Lente / Kidnap" PERFORMER "Bernard Herrmann" INDEX 01 00:00:00 TRACK 02 AUDIO TITLE "Newsboy / The Tape / The Ferry" PERFORMER "Bernard Herrmann" INDEX 00 05:58:29FILE "02 - Bernard Herrmann - Newsboy , The Tape , The Ferry.wav" WAVE INDEX 01 00:00:00 TRACK 03 AUDIO TITLE "The Tomb / Sandra" PERFORMER "Bernard Herrmann" INDEX 00 04:57:30FILE "03 - Bernard Herrmann - The Tomb , Sandra.wav" WAVE INDEX 01 00:00:00 TRACK 04 AUDIO TITLE "The Church / Court's Confession / Bryn Mawr" PERFORMER "Bernard Herrmann" INDEX 00 08:04:18FILE "04 - Bernard Herrmann - The Church , Court's Confession , Bryn Mawr.wav" WAVE INDEX 01 00:00:00 TRACK 05 AUDIO TITLE "New Orleans / Wedding / Court - The Morning After" PERFORMER "Bernard Herrmann" INDEX 00 09:25:09FILE "05 - Bernard Herrmann - New Orleans , Wedding , Court - The Morning After.wav" WAVE INDEX 01 00:00:00 TRACK 06 AUDIO TITLE "The Plane / Court and La Salle's Struggle / Airport" PERFORMER "Bernard Herrmann" INDEX 00 04:31:47FILE "06 - Bernard Herrmann - The Plane , Court and La Salle's Struggle , Airport.wav" WAVE INDEX 01 00:00:00


Трекер:  [ 05-Мар-2015 18:30 ]

  

Скачать .torrent

Размер .torrent файла 12 KB


Размер: 645 MB
Хэш (hash) релиза: 455f033216215e1eaf3583cc1365ec02861f30fa

Торренты, похожие на Наваждение Obsession скачать торрент

Форум Название Автор Размер S L Добавлен
Саундтреки к фильмам и мультфильмам (mp3) ·· (Score) Наваждение / Obsession (Bernard Herrmann) - 2015 (1976), MP3 (tracks) 320 kbps Galfimbul 411439104392 MB 0 0 1425570855

18:54

5-Мар-15

Еще никто не оставлял запись к записи скачать торрент Наваждение Obsession . Будь первым!

!Обратная связь