Скачать через торрент Мастера меча онлайн II Sword Art Online II бесплатно Аниме Все серии на русском torrent

Если у вас наблюдаются проблемы со скриншотами, переходом по ссылками, скачиванием торрентов - проблемы в блокировщике рекламы AdBlock. #хорошегоДня!


Статистика раздачи
Размер:  135.03 GB   |    Зарегистрирован:  2 года 6 месяцев   |    .torrent скачан:  35 раз   |   
Раздают:  1  
   
Загрузка...
 
Автор Сообщение

Galfimbul

avatar Galfimbul


Мастера меча онлайн II / Sword Art Online II / SAO II

Страна: Япония
Год выпуска: 2014 г.
Жанр: фантастика
Тип: TV
Продолжительность: (24 эп.) по 25 мин.
Режиссер: Ито Томохико
Студия: A-1 Pictures Inc.

Описание: Мрачный гений Каяба сполна расплатился за свои ошибки,
прекрасная Асуна освобождена, негодяй Суго наказан, но Мировое Древо все так
же высится в Альфхейме, а игровых виртуальных миров с каждым годом становится больше.
Да, человечество расширяет среду обитания, куда можно сбежать от непосильного гнета
реальности, попутно многое узнавая о работе собственного мозга и разума. Что нельзя
остановить, лучше возглавить: примерно так юный Кадзуто Киригая, больше известный как
Кирито, поведал подруге на очередном свидании. Асуна, разумеется, согласилась, ведь
главного-то милый ей не сказал!

А забыл лукавый Кирито рассказать о том, что подписался на участие в новомодной
игре «Буря стволов онлайн» - соревновательном шутере, где заработанную игровую
валюту можно переводить в привычную. Неудивительно, что кругом полно сильных игроков,
да вот кто-то нехороший, действуя из игры, стал убивать их в реальном мире. Это
считалось невозможным, ведь геймеры давно сменили шлемы-тостеры времен САО на «абсолютно
безопасные» интерфейсы. Ниточки явно тянутся из прошлого – тут и пригодится герой в черном,
который не смог отказать другу из незаметных, но компетентных органов. Ради благого дела
можно и по старинке мечом помахать, и стрелять поучиться, и даже заглянуть в «родные миры»
– жить-то с Асуной все равно на что-то надо!
© Hollow, World Art

Качество: BDRemux
Тип релиза: Без хардсаба
Формат видео: M2TS
Наличие линковки: Нет
Видео: AVC, 8 bits, 1920x1080 (16:9), 23.976 fps, ~37.9 Mbps
Аудио JAP #1: PCM, 48000Hz, 2304 Kbps 2ch
Аудио JAP #2: PCM, 48000Hz, 2304 Kbps 2ch (Комментарии)
Субтитры: русские субтитры от SHIFT Перевод: Evafan, matoi-kun, Редактор: Uker, Сверка: Jaga, QC: Herrfalke
Версия в папке ru_ru - с адаптацией никнеймов, в папке ru_jp - без.
ОбщееИдентификатор : 0 (0x0)Полное имя : E:\AnimeE\SAO-2 релиз\Sword Art Online II - 04 [1080p].m2tsФормат : BDAVФормат/Информация : Blu-ray VideoРазмер файла : 7,33 ГбайтПродолжительность : 23 м.Режим общего битрейта : ПеременныйОбщий поток : 44,3 Мбит/секМаксимальный общий битрейт : 48,0 Мбит/сек

ВидеоИдентификатор : 4113 (0x1011)Идентификатор меню : 1 (0x1)Формат : AVCФормат/Информация : Advanced Video CodecПрофиль формата : High@L4.1Параметр CABAC формата : ДаПараметр ReFrames формата : 2 кадраИдентификатор кодека : 27Продолжительность : 23 м.Вид битрейта : ПеременныйБитрейт : 37,9 Мбит/секШирина : 1920 пикселейВысота : 1080 пикселейСоотношение сторон : 16:9Частота кадров : 23,976 кадра/секЦветовое пространство : YUVСубдискретизация насыщенности : 4:2:0Битовая глубина : 8 битТип развёртки : ПрогрессивнаяБит/(Пиксели*Кадры) : 0.763Размер потока : 6,28 Гбайт (86%)

Аудио #1Идентификатор : 4352 (0x1100)Идентификатор меню : 1 (0x1)Формат : PCMПараметр Endianness формата : BigПараметр Sign формата : SignedРежим смешивания : Blu-rayИдентификатор кодека : 128Продолжительность : 23 м.Вид битрейта : ПостоянныйБитрейт : 2304 Кбит/секКаналы : 2 каналаРасположение каналов : Front: L RЧастота : 48,0 КГцБитовая глубина : 24 битРазмер потока : 391 Мбайт (5%)

Аудио #2Идентификатор : 4353 (0x1101)Идентификатор меню : 1 (0x1)Формат : PCMПараметр Endianness формата : BigПараметр Sign формата : SignedРежим смешивания : Blu-rayИдентификатор кодека : 128Продолжительность : 23 м.Вид битрейта : ПостоянныйБитрейт : 2304 Кбит/секКаналы : 2 каналаРасположение каналов : Front: L RЧастота : 48,0 КГцБитовая глубина : 24 битРазмер потока : 391 Мбайт (5%)
1) Мир стрелков
2) Ледяной снайпер
3) Кровавые воспоминания
4) ГГО
5) Пистолет и клинок
6) Схватка в пустоши
7) Багровые воспоминания
8) Золотая пуля
9) Дэс Ган
10) Убегая от смерти
11) Цена силы
12) Призрачная пуля
13) Призрачная пуля, акт второй
14) Первый шаг
14.5) Итоги
[url]...4777797[/url]
[url]...4806850[/url]
[url]...4776998[/url]
[url]...4776973[/url]
[url]...4793797[/url]
[url]...4858528[/url]
[url]...4858385[/url]
[url]...4792962[/url]
[url]...4888635[/url]
- BDremux
[url]...4858378[/url]
-больше серий
Добавлены некоторые сопутствующие мелочи для приверженцев максимума.


Трекер:  [ 04-Мар-2015 21:30 ]

  

Скачать .torrent

Размер .torrent файла 346 KB


Размер: 135.03 GB
Хэш (hash) релиза: 10b6fe3b600fdcb101c59d0d43221a990c41044c
Подписка на обновления:

Торренты, похожие на Мастера меча онлайн II Sword Art Online II скачать торрент

Форум Название Автор Размер S L Добавлен
Аниме | HD Rips ·· Мастера меча онлайн II / Sword Art Online II / SAO II [TV] [9 из 24] [Без хардсаба] [JAP + SUB] [2014 г., фантастика, BDRemux] [1080p] Galfimbul 7055546444665.71 GB 0 0 1420442126

10:15

5-Янв-15

Аниме | Rips ·· Мастера меча онлайн II / Sword Art Online II / SAO II [TV+Special] [19+1 из 24+1] [Без хардсаба] [RUS(int)] [2014 г., приключения, фэнтези, HDTVRip] [HWP] Galfimbul 56751329285.29 GB 0 0 1416569600

14:33

21-Ноя-14

Аниме | Rips ·· Мастера меча онлайн II / Sword Art Online II / SAO II [TV] [1-8 из 24] [Без хардсаба] [RUS(int)] [2014 г., приключения, фэнтези, HDTVRip] [HWP] Galfimbul 22697799682.11 GB 0 0 1409055887

15:24

26-Авг-14

Аниме | HD Rips ·· Мастера меча онлайн 2 / Sword Art Online II / SAO 2 [TV+Special] [14+0 из 24+1] [Без хардсаба] [JAP+SUB] [2014 г., приключения, фантастика, WEBRip] [1080p] Galfimbul 79376193557.39 GB 0 0 1412880205

21:43

9-Окт-14

Аниме | Rips ·· Мастера меча онлайн 2 / Sword Art Online II / SAO 2 [TV+Special] [14+0 из 24+1] [Без хардсаба] [JAP+SUB] [2014 г., приключения, фантастика, WEBRip] Galfimbul 21496397502 GB 0 0 1412880165

21:42

9-Окт-14

Аниме | HD Rips ·· Мастера меча онлайн 2 / Sword Art Online II / SAO 2 [TV] [7 из 24] [Без хардсаба] [JAP+SUB] [2014 г., приключения, фантастика, WEBRip] [1080p] Galfimbul 39720037593.7 GB 0 0 1409056535

15:35

26-Авг-14

Аниме | Rips ·· Мастера меча онлайн 2 / Sword Art Online II / SAO 2 [TV] [7 из 24] [Без хардсаба] [JAP+SUB] [2014 г., приключения, фантастика, WEBRip] Galfimbul 10747038171 GB 0 0 1409054498

15:01

26-Авг-14

Аниме | HD Rips ·· Мастера меча онлайн II: Призрачная пуля / Sword Art Online II / Phantom Bullet / SAO II (Ито Томохико) [TV] [3 из 24] [Без хардсаба] [RUS(ext), JAP+SUB] [2014 г., экшен, приключения, фэнтези, игры, романтика, сёнен, BDRemux] [1080p] Galfimbul 2120685467519.75 GB 0 0 1414845237

15:33

1-Ноя-14

Аниме | Rips ·· Мастера меча онлайн II: Призрачная пуля / Sword Art Online II / Phantom Bullet / SAO II [TV] [1-6 из 24] [Без хардсаба] [RUS(int), JAP, SUB] [2014 г., Экшен, Приключения, Фэнтези, Игры, Романтика, Сёнен, HDTVRip] [720p] Galfimbul 25546407892.38 GB 0 0 1409056057

15:27

26-Авг-14

Еще никто не оставлял запись к записи скачать торрент Мастера меча онлайн II Sword Art Online II . Будь первым!

!Обратная связь