Скачать через торрент Новый Инициал «Ди» New Initial D Movie бесплатно Аниме Все серии на русском torrent

Если у вас наблюдаются проблемы со скриншотами, переходом по ссылками, скачиванием торрентов - проблемы в блокировщике рекламы AdBlock. #хорошегоДня!


Статистика раздачи
Размер:  2.79 GB   |    Зарегистрирован:  2 года 6 месяцев   |    .torrent скачан:  34 раза   |   
Раздают:  1  
   
Загрузка...
 
Автор Сообщение

Galfimbul

avatar Galfimbul


Новый Инициал «Ди» / New Initial D Movie / Shin Gekijouban Initial D

Страна: Япония
Год выпуска: 2014 г.
Жанр: спорт, приключения
Тип: Movie
Продолжительность: 3 эп. по 65 мин.

Субтитры: ASS, Встроенные, Полные | Надписи
Перевод: SibVic
Редактор: mutagenb

Озвучка: одноголосая (муж.) FassaD

Режиссер: Масамицу Хидака
Студия: Sanzigen, Liden Films

Описание: Уличные гонщики RedSuns вызывают на дружественную гонку местную команду г. Акина SpeedStars. Увидев способности RedSuns, гонщики SpeedStars задумались о том, как быть не униженными на домашней трассе. SpeedStars попали в безвыходное положение, когда их гонщик попал в аварию во время тренировки. Икэтани услышал от своего оффисного менеджера о том, что быстрейшей на спуске Акины является AE86 владельца магазина тофу. Также он узнал, что владелец магазина, Фудзивара Бунта, был уличным гонщиком с великой репутацией в молодые годы, известным как «Призрак Акины». Икетани попросил старика занять его место в заезде против RedSuns. Когда пришел день состязания, сын Бунты Такуми появился на Trueno отца.

Качество: BDRip [Mad&Meteor]
Тип релиза: Без хардсаба
Формат видео: MKV
Видео: h264, 10bit, 1920x1080, 3847kbps, 23.976fps
Аудио: AC3, 48.0KHz, 6ch, ~ 640Kbps Язык Русский (в составе контейнера)
Аудио 2: FLAC, 48.0KHz, 6ch, ~ 640Kbps Язык Японский
[url=...4216660] Инициал «Ди» - Стадия первая / Initial D: First Stage [/url][url=...4223588] Инициал «Ди» - Стадия вторая / Initial D: Second Stage [/url][url=...3070223] Инициал «Ди» - Стадия третья / Initial D Third Stag [/url][url=...2365200] Инициал «Ди» - Экстра-стадия / Initial D Extra Stage [/url][url=...2468504] Инициал «Ди» - Стадия четвёртая / Initial D Fourth Stage [/url][url=...2365201] Инициал «Ди» - Экстра-стадия 2 / Initial D Extra Stage 2 Stage [/url][url=...4516284] Инициал «Ди» Пятая стадия / Initial D Fifth Stage 2 Stage [/url][url=...4786741] Инициал Ди Финальная стадия / Initial D Final Stage Stage [/url]
GeneralUnique ID : 249267780790412455475585579213928849439 (0xBB873A7325EB332B924159539B00E01F)Complete name : Shin Initial D [FassaD]\Initial D - Legend 1 (720p).mkvFormat : MatroskaFormat version : Version 4 / Version 2File size : 969 MiBDuration : 1h 2mnOverall bit rate : 2 164 KbpsEncoded date : UTC 2015-02-24 12:32:58Writing application : mkvmerge v7.6.0 ('Garden of Dreams') 64bit built on Feb 8 2015 13:04:34Writing library : libebml v1.3.1 + libmatroska v1.4.2DURATION : 01:01:52.410000000NUMBER_OF_FRAMES : 912NUMBER_OF_BYTES : 63897_STATISTICS_WRITING_APP : mkvmerge v7.6.0 ('Garden of Dreams') 64bit built on Feb 8 2015 13:04:34_STATISTICS_WRITING_DATE_UT : 2015-02-24 12:32:58_STATISTICS_TAGS : BPS DURATION NUMBER_OF_FRAMES NUMBER_OF_BYTES

VideoID : 1Format : AVCFormat/Info : Advanced Video CodecFormat profile : High@L3.1Format settings, CABAC : YesFormat settings, ReFrames : 5 framesCodec ID : V_MPEG4/ISO/AVCDuration : 1h 2mnBit rate : 841 KbpsWidth : 1 280 pixelsHeight : 720 pixelsDisplay aspect ratio : 16:9Frame rate mode : ConstantFrame rate : 23.976 fpsColor space : YUVChroma subsampling : 4:2:0Bit depth : 8 bitsScan type : ProgressiveBits/(Pixel*Frame) : 0.038Stream size : 376 MiB (39%)Title : Central AnimeWriting library : x264 core 142 r2431+42 c69a006 tMod [8-bit@all X86_64]Encoding settings : cabac=1 / ref=5 / deblock=1:-1:-1 / analyse=0x3:0x113 / me=umh / subme=9 / psy=1 / fade_compensate=0.00 / psy_rd=1.00:0.00 / mixed_ref=1 / me_range=24 / chroma_me=1 / trellis=2 / 8x8dct=1 / cqm=0 / deadzone=21,11 / fast_pskip=1 / chroma_qp_offset=-2 / threads=6 / lookahead_threads=1 / sliced_threads=0 / nr=0 / decimate=1 / interlaced=0 / bluray_compat=0 / constrained_intra=0 / fgo=0 / bframes=3 / b_pyramid=2 / b_adapt=2 / b_bias=0 / direct=3 / weightb=1 / open_gop=0 / weightp=2 / keyint=250 / keyint_min=23 / scenecut=40 / intra_refresh=0 / rc_lookahead=60 / rc=crf / mbtree=1 / crf=23.0000 / qcomp=0.80 / qpmin=0:0:0 / qpmax=69:69:69 / qpstep=4 / ip_ratio=1.40 / aq=3:0.80 / aq-sensitivity=10.00 / aq-factor=1.00:1.00:1.00 / aq2=0 / aq3=0Language : JapaneseDefault : YesForced : NoColor primaries : BT.709Transfer characteristics : BT.709Matrix coefficients : BT.709Color range : Limited

Audio #1ID : 2Format : AC-3Format/Info : Audio Coding 3Mode extension : CM (complete main)Format settings, Endianness : BigCodec ID : A_AC3Duration : 1h 2mnBit rate mode : ConstantBit rate : 640 KbpsChannel(s) : 6 channelsChannel positions : Front: L C R, Side: L R, LFESampling rate : 48.0 KHzBit depth : 16 bitsCompression mode : LossyStream size : 287 MiB (30%)Title : FassaD 5.1Language : RussianDefault : YesForced : No

Audio #2ID : 3Format : AC-3Format/Info : Audio Coding 3Mode extension : CM (complete main)Format settings, Endianness : BigCodec ID : A_AC3Duration : 1h 2mnBit rate mode : ConstantBit rate : 640 KbpsChannel(s) : 6 channelsChannel positions : Front: L C R, Side: L R, LFESampling rate : 48.0 KHzBit depth : 16 bitsCompression mode : LossyStream size : 287 MiB (30%)Title : Original 5.1Language : JapaneseDefault : NoForced : No

Text #1ID : 4Format : ASSCodec ID : S_TEXT/ASSCodec ID/Info : Advanced Sub Station AlphaCompression mode : LosslessTitle : НадписиLanguage : RussianDefault : YesForced : No

Text #2ID : 5Format : ASSCodec ID : S_TEXT/ASSCodec ID/Info : Advanced Sub Station AlphaCompression mode : LosslessTitle : СубтитрыLanguage : RussianDefault : NoForced : No
Легенда 1: Пробуждение
[url]...4940520[/url] - Наличие озвучки


Трекер:  [ 28-Фев-2015 00:00 ]

  

Скачать .torrent

Размер .torrent файла 14 KB


Размер: 2.79 GB
Хэш (hash) релиза: e67bcd62abb3a0f92af5511a77e23aa1876d3c13
Подписка на обновления:

Еще никто не оставлял запись к записи скачать торрент Новый Инициал «Ди» New Initial D Movie . Будь первым!

!Обратная связь