Скачать через торрент музыку Хоть раз в жизни Begin again бесплатно без регистрации torrent

Если у вас наблюдаются проблемы со скриншотами, переходом по ссылками, скачиванием торрентов - проблемы в блокировщике рекламы AdBlock. #хорошегоДня!


Статистика раздачи
Размер:  375 MB   |    Зарегистрирован:  2 года 6 месяцев   |    .torrent скачан:  38 раз   |   
Раздают:  1  
   
Загрузка...
 
Автор Сообщение

Galfimbul

avatar Galfimbul


Хоть раз в жизни / Begin again (Deluxe Edition)
Жанр: Soundtrack
Год выпуска диска: 2014
Производитель диска: EU
Издатель (лейбл): Interscpope
Номер по каталогу: 0602537917662
Аудиокодек: FLAC (*.flac)
Тип рипа: tracks+.cue
Битрейт аудио: lossless
Продолжительность: 00:55:07
Источник: собственный рип
Наличие сканов в содержимом раздачи: нет
01. Adam Levine / Lost Stars [0:04:27.69]
02. Keira Knightley / Tell Me If You Wanna Go Home [0:03:39.44]
03. Adam Levine / No One Else Like You [0:03:28.32]
04. CeeLo Green / Horny [0:03:38.04]
05. Keira Knightley / Lost Stars [0:04:00.14]
06. Adam Levine / A Higher Place [0:03:12.09]
07. Keira Knightley / Like A Fool [0:02:27.14]
08. Cessyl Orchestra / Did It Ever Cross Your Mind (Demo Version) [0:03:38.66]
09. CeeLo Green / Women Of The World [0:03:15.31]
10. Keira Knightley / Coming Up Roses [0:03:13.72]
11. Cessyl Orchestra / Into The Trance [0:04:05.60]
12. Keira Knightley / A Step You Can’t Take Back [0:03:25.39]
13. Adam Levine / Lost Stars (Into The Night Mix) [0:03:38.08]
14. Cessyl Orchestra / The Roof Is Broke (Demo Mix) [0:03:00.10]
15. Keira Knightley and Hailee Steinfeld / Tell Me If You Wanna Go Home ( [0:03:27.69]
16. Cessyl Orchestra / Intimidated By You [0:02:28.31]
Exact Audio Copy V1.0 beta 3 from 29. August 2011

EAC extraction logfile from 25. February 2015, 19:26

Various Artists / Begin again

Used drive : PLEXTOR CD-R PX-230A Adapter: 0 ID: 0

Read mode : SecureUtilize accurate stream : YesDefeat audio cache : YesMake use of C2 pointers : No

Read offset correction : 738Overread into Lead-In and Lead-Out : NoFill up missing offset samples with silence : YesDelete leading and trailing silent blocks : NoNull samples used in CRC calculations : YesUsed interface : Native Win32 interface for Win NT & 2000Gap handling : Appended to previous track

Used output format : User Defined EncoderSelected bitrate : 1024 kBit/sQuality : HighAdd ID3 tag : NoCommand line compressor : C:\Program Files\Exact Audio Copy\Flac\flac.exeAdditional command line options : -6 -V -T "ARTIST=%artist%" -T "TITLE=%title%" -T "ALBUM=%albumtitle%" -T "DATE=%year%" -T "TRACKNUMBER=%tracknr%" -T "GENRE=%genre%" -T "COMMENT=%comment%" -T "ALBUMARTIST=%albuminterpret%" -T "COMPOSER=%composer%" -T "DISCNUMBER=%cdnumber%" -T "TOTALDISCS=%totalcds%" -T "TOTALTRACKS=%numtracks%" %source% -o %dest%

TOC of the extracted CD

Track | Start | Length | Start sector | End sector --------------------------------------------------------- 1 | 0:00.00 | 4:27.69 | 0 | 20093 2 | 4:27.69 | 3:39.44 | 20094 | 36562 3 | 8:07.38 | 3:28.32 | 36563 | 52194 4 | 11:35.70 | 3:38.04 | 52195 | 68548 5 | 15:13.74 | 4:00.14 | 68549 | 86562 6 | 19:14.13 | 3:12.09 | 86563 | 100971 7 | 22:26.22 | 2:27.14 | 100972 | 112010 8 | 24:53.36 | 3:38.66 | 112011 | 128426 9 | 28:32.27 | 3:15.31 | 128427 | 143082 10 | 31:47.58 | 3:13.72 | 143083 | 157629 11 | 35:01.55 | 4:05.60 | 157630 | 176064 12 | 39:07.40 | 3:25.39 | 176065 | 191478 13 | 42:33.04 | 3:38.08 | 191479 | 207836 14 | 46:11.12 | 3:00.10 | 207837 | 221346 15 | 49:11.22 | 3:27.69 | 221347 | 236940 16 | 52:39.16 | 2:28.31 | 236941 | 248071

Track 1

Filename C:\Music\01 - Adam Levine - Lost Stars.wav

Pre-gap length 0:00:02.00

Peak level 98.8 % Extraction speed 4.5 X Track quality 99.9 % Test CRC 70B27CA4 Copy CRC 70B27CA4 Accurately ripped (confidence 16) [437747FF] (AR v2) Copy OK

Track 2

Filename C:\Music\02 - Keira Knightley - Tell Me If You Wanna Go Home.wav

Peak level 97.7 % Extraction speed 4.5 X Track quality 100.0 % Test CRC A47D6F32 Copy CRC A47D6F32 Accurately ripped (confidence 16) [2DB2C91E] (AR v2) Copy OK

Track 3

Filename C:\Music\03 - Adam Levine - No One Else Like You.wav

Peak level 98.8 % Extraction speed 4.4 X Track quality 100.0 % Test CRC FCC15383 Copy CRC FCC15383 Accurately ripped (confidence 16) [E408E498] (AR v2) Copy OK

Track 4

Filename C:\Music\04 - CeeLo Green - Horny.wav

Peak level 97.5 % Extraction speed 5.4 X Track quality 100.0 % Test CRC A30011EC Copy CRC A30011EC Accurately ripped (confidence 16) [F92269DE] (AR v2) Copy OK

Track 5

Filename C:\Music\05 - Keira Knightley - Lost Stars.wav

Pre-gap length 0:00:02.48

Peak level 98.0 % Extraction speed 5.6 X Track quality 100.0 % Test CRC 2178CE58 Copy CRC 2178CE58 Accurately ripped (confidence 16) [6EF9B455] (AR v2) Copy OK

Track 6

Filename C:\Music\06 - Adam Levine - A Higher Place.wav

Peak level 98.8 % Extraction speed 5.4 X Track quality 100.0 % Test CRC B6D9CB03 Copy CRC B6D9CB03 Accurately ripped (confidence 16) [880A147E] (AR v2) Copy OK

Track 7

Filename C:\Music\07 - Keira Knightley - Like A Fool.wav

Pre-gap length 0:00:01.49

Peak level 98.8 % Extraction speed 5.2 X Track quality 100.0 % Test CRC 4B2DE906 Copy CRC 4B2DE906 Accurately ripped (confidence 16) [B48A1FE0] (AR v2) Copy OK

Track 8

Filename C:\Music\08 - Cessyl Orchestra - Did It Ever Cross Your Mind (Demo Version).wav

Pre-gap length 0:00:02.57

Peak level 98.8 % Extraction speed 5.5 X Track quality 100.0 % Test CRC C97E015C Copy CRC C97E015C Accurately ripped (confidence 16) [23ABF1A0] (AR v2) Copy OK

Track 9

Filename C:\Music\09 - CeeLo Green - Women Of The World.wav

Pre-gap length 0:00:02.09

Peak level 98.8 % Extraction speed 5.4 X Track quality 100.0 % Test CRC 928C48D7 Copy CRC 928C48D7 Accurately ripped (confidence 16) [B6A5EF1F] (AR v2) Copy OK

Track 10

Filename C:\Music\10 - Keira Knightley - Coming Up Roses.wav

Pre-gap length 0:00:01.20

Peak level 98.8 % Extraction speed 5.3 X Track quality 100.0 % Test CRC 451D25B7 Copy CRC 451D25B7 Accurately ripped (confidence 16) [929107B1] (AR v2) Copy OK

Track 11

Filename C:\Music\11 - Cessyl Orchestra - Into The Trance.wav

Pre-gap length 0:00:01.57

Peak level 98.8 % Extraction speed 5.5 X Track quality 100.0 % Test CRC 01505547 Copy CRC 01505547 Accurately ripped (confidence 16) [3840BE43] (AR v2) Copy OK

Track 12

Filename C:\Music\12 - Keira Knightley - A Step You Can’t Take Back.wav

Pre-gap length 0:00:02.04

Peak level 98.3 % Extraction speed 4.8 X Track quality 99.9 % Test CRC 7BE31102 Copy CRC 7BE31102 Accurately ripped (confidence 16) [1D46C8E0] (AR v2) Copy OK

Track 13

Filename C:\Music\13 - Adam Levine - Lost Stars (Into The Night Mix).wav

Pre-gap length 0:00:03.40

Peak level 98.8 % Extraction speed 4.9 X Track quality 99.9 % Test CRC 6D695C83 Copy CRC 6D695C83 Accurately ripped (confidence 16) [81581E4B] (AR v2) Copy OK

Track 14

Filename C:\Music\14 - Cessyl Orchestra - The Roof Is Broke (Demo Mix).wav

Pre-gap length 0:00:01.03

Peak level 95.5 % Extraction speed 5.4 X Track quality 100.0 % Test CRC CF54D887 Copy CRC CF54D887 Accurately ripped (confidence 16) [3643B18C] (AR v2) Copy OK

Track 15

Filename C:\Music\15 - Keira Knightley and Hailee Steinfeld - Tell Me If You Wanna Go Home (.wav

Peak level 98.8 % Extraction speed 5.3 X Track quality 100.0 % Test CRC 261A114F Copy CRC 261A114F Accurately ripped (confidence 16) [2B5A8889] (AR v2) Copy OK

Track 16

Filename C:\Music\16 - Cessyl Orchestra - Intimidated By You.wav

Pre-gap length 0:00:01.31

Peak level 98.8 % Extraction speed 4.1 X Track quality 99.9 % Test CRC 74293BFB Copy CRC 74293BFB Accurately ripped (confidence 16) [8ED109BD] (AR v2) Copy OK

All tracks accurately ripped

No errors occurred

End of status report

==== Log checksum 8C19BF84B44839C4B68BA9DFF955FAE3CF867DD8CD58EBD1C2CAB442ED16281A ====
REM GENRE SoundTrackREM DATE 2014REM DISCID F70CEB10REM COMMENT "ExactAudioCopy v1.0b3"PERFORMER "Various Artists"TITLE "Begin again"FILE "01 - Adam Levine - Lost Stars.wav" WAVE TRACK 01 AUDIO TITLE "Lost Stars" PERFORMER "Adam Levine" INDEX 01 00:00:00FILE "02 - Keira Knightley - Tell Me If You Wanna Go Home.wav" WAVE TRACK 02 AUDIO TITLE "Tell Me If You Wanna Go Home" PERFORMER "Keira Knightley" INDEX 01 00:00:00FILE "03 - Adam Levine - No One Else Like You.wav" WAVE TRACK 03 AUDIO TITLE "No One Else Like You " PERFORMER "Adam Levine" INDEX 01 00:00:00FILE "04 - CeeLo Green - Horny.wav" WAVE TRACK 04 AUDIO TITLE "Horny " PERFORMER "CeeLo Green" INDEX 01 00:00:00 TRACK 05 AUDIO TITLE "Lost Stars" PERFORMER "Keira Knightley" INDEX 00 03:35:31FILE "05 - Keira Knightley - Lost Stars.wav" WAVE INDEX 01 00:00:00FILE "06 - Adam Levine - A Higher Place.wav" WAVE TRACK 06 AUDIO TITLE "A Higher Place" PERFORMER "Adam Levine" INDEX 01 00:00:00 TRACK 07 AUDIO TITLE "Like A Fool" PERFORMER "Keira Knightley" INDEX 00 03:10:35FILE "07 - Keira Knightley - Like A Fool.wav" WAVE INDEX 01 00:00:00 TRACK 08 AUDIO TITLE "Did It Ever Cross Your Mind (Demo Version)" PERFORMER "Cessyl Orchestra" INDEX 00 02:24:32FILE "08 - Cessyl Orchestra - Did It Ever Cross Your Mind (Demo Version).wav" WAVE INDEX 01 00:00:00 TRACK 09 AUDIO TITLE "Women Of The World" PERFORMER "CeeLo Green" INDEX 00 03:36:57FILE "09 - CeeLo Green - Women Of The World.wav" WAVE INDEX 01 00:00:00 TRACK 10 AUDIO TITLE "Coming Up Roses" PERFORMER "Keira Knightley" INDEX 00 03:14:11FILE "10 - Keira Knightley - Coming Up Roses.wav" WAVE INDEX 01 00:00:00 TRACK 11 AUDIO TITLE "Into The Trance" PERFORMER "Cessyl Orchestra" INDEX 00 03:12:15FILE "11 - Cessyl Orchestra - Into The Trance.wav" WAVE INDEX 01 00:00:00 TRACK 12 AUDIO TITLE "A Step You Can't Take Back" PERFORMER "Keira Knightley" INDEX 00 04:03:56FILE "12 - Keira Knightley - A Step You Can't Take Back.wav" WAVE INDEX 01 00:00:00 TRACK 13 AUDIO TITLE "Lost Stars (Into The Night Mix) " PERFORMER "Adam Levine" INDEX 00 03:21:74FILE "13 - Adam Levine - Lost Stars (Into The Night Mix).wav" WAVE INDEX 01 00:00:00 TRACK 14 AUDIO TITLE "The Roof Is Broke (Demo Mix)" PERFORMER "Cessyl Orchestra" INDEX 00 03:37:05FILE "14 - Cessyl Orchestra - The Roof Is Broke (Demo Mix).wav" WAVE INDEX 01 00:00:00FILE "15 - Keira Knightley and Hailee Steinfeld - Tell Me If You Wanna Go Home (Rooftop Mix).wav" WAVE TRACK 15 AUDIO TITLE "Tell Me If You Wanna Go Home (Rooftop Mix)" PERFORMER "Keira Knightley and Hailee Steinfeld" INDEX 01 00:00:00 TRACK 16 AUDIO TITLE "Intimidated By You " PERFORMER "Cessyl Orchestra" INDEX 00 03:26:38FILE "16 - Cessyl Orchestra - Intimidated By You.wav" WAVE INDEX 01 00:00:00


Трекер:  [ 25-Фев-2015 23:00 ]

  

Скачать .torrent

Размер .torrent файла 31 KB


Размер: 375 MB
Хэш (hash) релиза: 8222817e231bbe059a05f4bce5110d211689b91e

Еще никто не оставлял запись к записи скачать торрент Хоть раз в жизни Begin again . Будь первым!

!Обратная связь