Скачать порно через торрент Your Mom Tossed My Salad 15 Твоя Мамаша Вылизала Мне Жопу 15 UnionPeer.org бесплатно онлайн HD качество

Скачать новое порно 2015, 2014 новинки через торрент UnionPeer.org

Порно торрент бесплатно ЮнионПир.орг

Если у вас наблюдаются проблемы со скриншотами, переходом по ссылками, скачиванием торрентов - проблемы в блокировщике рекламы AdBlock. #хорошегоДня!


Статистика раздачи
Размер:  1.46 GB   |    Зарегистрирован:  2 года 5 месяцев   |    .torrent скачан:  326 раз   |   
Раздают:  1  
   
Загрузка...
 
Автор Сообщение

Galfimbul

avatar Galfimbul


Your Mom Tossed My Salad 15 / Твоя Мамаша Вылизала Мне Жопу 15 Год производства: 2014 г.
Страна: USA
Жанр: All Sex, Mature, MILF, Rimming
Продолжительность: 02:07:56
Режиссер: Chucky Sleaze
Студия: Lethal Hardcore

В ролях: Alexis Malone, Nadia Styles, Mercedes Carrera, Paisley Parker, Sammy Brooks, Maci Maguire

Описание: Curvy MILFs eat man booty!Alexis stormed into her stepson''s room to tell him to wash his dirty dishes, but she decided to lick his ass and ride his cock like a dirty slut instead. Romeo stopped by Jake''s place to work on their science project, but he got distracted by Maci''s tongue in his ass and her pussy on his cock! When Paisley got a rejection letter from University, she visited the dean with her mom Mercedes and they took turns sucking, fucking and rimming that old perv until he offered her a FULL RIDE scholarship! Nadia''s son almost got kicked out of the boy scouts until she licked the scout leader''s butt and gave him some poon tang! When Sammy lost a bet playing foos ball with Ralph she ended up having to give him a wicked rim job before they got their fuck on!

Качество видео: DVDRip
Формат видео: MP4
Видео: Video: MPEG4 Video (H264) 720x480 29.97fps 1502kbps [Video]
Аудио: Audio: AAC 44100Hz stereo 127kbps [Audio]
Format : MPEG-4
Format profile : Base Media
Codec ID : isom
File size : 1.46 GiB
Duration : 2h 7mn
Overall bit rate : 1 636 Kbps
Encoded date :
Tagged date :
Writing application : Lavf2.1

Video
ID : 1
Format : AVC
Format/Info : Advanced Video Codec
Format profile : Baseline@L1.3
Format settings, CABAC : No
Format settings, ReFrames : 1 frame
Codec ID : avc1
Codec ID/Info : Advanced Video Coding
Duration : 2h 7mn
Bit rate mode : Variable
Bit rate : 1 503 Kbps
Width : 720 pixels
Height : 480 pixels
Display aspect ratio : 3:2
Frame rate mode : Constant
Frame rate : 29.970 fps
Standard : NTSC
Color space : YUV
Chroma subsampling : 4:2:0
Bit depth : 8 bits
Scan type : Progressive
Bits/(Pixel*Frame) : 0.145
Stream size : 1.34 GiB (92%)
Encoded date : UTC
Tagged date : UTC

Audio
ID : 2
Format : AAC
Format/Info : Advanced Audio Codec
Format version : Version 4
Format profile : LC
Format settings, SBR : No
Codec ID : 40
Duration : 2h 7mn
Bit rate mode : Variable
Bit rate : 128 Kbps
Channel(s) : 2 channels
Channel positions : Front: L R
Sampling rate : 44.1 KHz
Stream size : 117 MiB (8%)
Encoded date : UTC
Tagged date : UTC


Трекер:  [ 24-Фев-2015 21:30 ]

  

Скачать .torrent

Размер .torrent файла 15 KB


Размер: 1.46 GB
Хэш (hash) релиза: c0e18c7ba20ded6a8450bcba2947bb3c3faac14d

Торренты, похожие на Your Mom Tossed My Salad 15 Твоя Мамаша Вылизала Мне Жопу 15 скачать торрент

Форум Название Автор Размер S L Добавлен
Гонзо-фильмы ·· Your Mom Tossed My Salad 15 / Твоя Мамаша Вылизала Мне Жопу 15 (Chucky Sleaze, Lethal Hardcore) [2014 г., All Sex, Mature, MILF, Rimming, Gonzo, DVDRip] [Pr0nStarS] Galfimbul 18645147781.74 GB 0 0 1425056916

20:08

27-Фев-15

Зарубежные порнофильмы ·· Your Mom Tossed My Salad 15 / Твоя Мамаша Вылизала Мне Жопу 15 (Chucky Sleaze / Lethal Hardcore) [2015 г., All Sex, Mature, MILF, Rimming, 720p, WEBRip] Galfimbul 39573167843.69 GB 0 0 1424523422

15:57

21-Фев-15

Еще никто не оставлял запись к записи скачать торрент Your Mom Tossed My Salad 15 Твоя Мамаша Вылизала Мне Жопу 15 . Будь первым!

!Обратная связь