Скачать порно через торрент HotSex Горячий секс UnionPeer.org бесплатно онлайн HD качество

Скачать новое порно 2015, 2014 новинки через торрент UnionPeer.org

Порно торрент бесплатно ЮнионПир.орг

Если у вас наблюдаются проблемы со скриншотами, переходом по ссылками, скачиванием торрентов - проблемы в блокировщике рекламы AdBlock. #хорошегоДня!


Статистика раздачи
Размер:  1.36 GB   |    Зарегистрирован:  2 года 9 месяцев   |    .torrent скачан:  265 раз   |   
Раздают:  1  
   
Загрузка...
 
Автор Сообщение

Galfimbul

avatar Galfimbul


HotSex / Горячий секс Год производства: 2012 г.
Страна: USA
Жанр: Ethnic European International Threesomes Hardcore For Women Group Sex Gonzo Anal Double Penetratio
Продолжительность: 00:41:55 + 00:34:23 + 00:50:38
Язык: Английский

Студия: DDF Productions

В ролях: Amirah, Lindsey Olsen, Lola Taylor, Thomas Stone, Mugur, Markus Dupree, Choky Ice

Описание: Fans of DP penetrations everywhere rejoice! These European cock hungry babes are performing the kinky deed in three hardcore scenes to get you off! They are never satisfied with just one cock pummeling a juicy fuck hole. They need to take on two at a time for double the pleasure and double the creamy goo they crave! So grab the lube and cum join the party and satisfy these gluttonous babes in three hardcore scenes and over two hours of ass gaping action!
Дополнительная информация:http://www.ddfvod.com/display_product.jhtml?id=401217&lref=Srch_Hot.Sex._Products_34
Разбит на эпизоды: Да
Качество видео: DVDRip
Формат видео: MP4
Видео: Video: MPEG4 Video (H264) 864x486 30.00fps 1399kbps [Video]
Аудио: Audio: AAC 48000Hz stereo 127kbps [Audio]
Format profile : Base Media
Codec ID : isom
File size : 459 MiB
Duration : 41mn 55s 00:34:23 + 00:50:38
Overall bit rate : 1 530 Kbps
Encoded date :
Tagged date :

Video
ID : 1
Format : AVC
Format/Info : Advanced Video Codec
Format profile : Baseline@L3.1
Format settings, CABAC : No
Format settings, ReFrames : 3 frames
Codec ID : avc1
Codec ID/Info : Advanced Video Coding
Duration : 41mn 55s 00:34:23 + 00:50:38
Bit rate mode : Variable
Bit rate : 1 400 Kbps
Maximum bit rate : 3 421 Kbps
Width : 864 pixels
Height : 486 pixels
Display aspect ratio : 16:9
Frame rate mode : Constant
Frame rate : 30.000 fps
Original frame rate : 60.000 fps
Color space : YUV
Chroma subsampling : 4:2:0
Bit depth : 8 bits
Scan type : Progressive
Bits/(Pixel*Frame) : 0.111
Stream size : 420 MiB (91%)
Writing library : Zencoder Video Encoding System
Encoded date : UTC
Tagged date : UTC

Audio
ID : 2
Format : AAC
Format/Info : Advanced Audio Codec
Format version : Version 4
Format profile : LC
Format settings, SBR : No
Codec ID : 40
Duration : 41mn 55s 00:34:23 + 00:50:38
Bit rate mode : Variable
Bit rate : 128 Kbps
Maximum bit rate : 139 Kbps
Channel(s) : 2 channels
Channel positions : Front: L R
Sampling rate : 48.0 KHz
Stream size : 38.4 MiB (8%)
Encoded date : UTC
Tagged date : UTC


Трекер:  [ 23-Фев-2015 21:30 ]

  

Скачать .torrent

Размер .torrent файла 14 KB


Размер: 1.36 GB
Хэш (hash) релиза: aff8c6e33f831f87b22b2e55194d3be857409387

Торренты, похожие на HotSex Горячий секс скачать торрент

Форум Название Автор Размер S L Добавлен
Японские порно фильмы ·· Erika Kirihara - Extreme Squirting HotSex / Экстремальный Брызгающий Горячий Секс [SOE-276] (S1) [cen] [2009 г., Asian, Big Tits, All Sex, DVDRip] Galfimbul 33841583533.15 GB 0 0 1371529010

07:16

18-Июн-13

Еще никто не оставлял запись к записи скачать торрент HotSex Горячий секс . Будь первым!

!Обратная связь