Скачать через торрент Секреты Шаолиня в 3Д Secrets of Shaolin with Jason Scott Lee Фильм бесплатно в хорошем качестве torrent

Скачивайте на UnionPeer.org фильмы через торрент без регистрации. Новинки кино в хорошем качестве через торрент. На UnionPeer.org можно скачать через торрент фильмы 2014 и 2015 годов. Самые новые фильмы.

Скачать торрент Секреты Шаолиня в 3Д Secrets of Shaolin with Jason Scott Lee бесплатно через .torrent фильм мультфильм сериал

Если у вас наблюдаются проблемы со скриншотами, переходом по ссылками, скачиванием торрентов - проблемы в блокировщике рекламы AdBlock. #хорошегоДня!


Статистика раздачи
Размер:  7.08 GB   |    Зарегистрирован:  2 года 6 месяцев   |    .torrent скачан:  101 раз   |   
Раздают:  1  
   
Загрузка...
 
Автор Сообщение

Galfimbul

avatar Galfimbul


Секреты Шаолиня
Secrets of Shaolin with Jason Scott Lee / Shaolin Bootcamp

Год выпуска: 2012
Страна: Сингапур (Beach House Pictures, China Intercontinental Communication Centre, 3net)
Жанр: Документальный, Боевые искусства
Продолжительность: 0:48:29

Перевод: Отсутствует

Режиссер: Donovan Chan
В фильме снимался: Джейсон Скотт Ли / Jason Scott Lee
Описание: Голливудский актер Джейсон Скотт Ли, эксперт боевого стиля Джит Кун-До (截拳道), воплотил свою мечту - две недели практиковался кунг-фу в учебном лагере Шаолиня.
.
Качество: BDRip (by Ash61)
Контейнер: MKV
Формат 3D: Half OverUnder / Вертикальная анаморфная стереопара
Порядок ракурсов: левый ракурс первый
Видео кодек: x264
Аудио кодек: AC3
Видео: AVC / 23,976 fps / 1920х1080p / 19.2 Mbps

Аудио:
#1 - Английский / AC3 / 48 KHz / 5.1 ch / 640 Kbps (Original - BD 3D Ger)
#2 - Немецкий / AC3 / 48 KHz / 5.1 ch / 640 Kbps (Original - BD 3D Ger) (Отдельным файлом)

Субтитры: Отсутствуют
General
Unique ID : 211712232270314068927276438667065514600 (0x9F464AF31F3743B7B2BD5E99383B5A68)
Complete name : E:\SecretsOfShaolin(2012)3D-halfOU(Ash61)Eng\SecretsOfShaolin(2012)3D-halfOU(Ash61)Eng.mkv
Format : Matroska
Format version : Version 2
File size : 6.86 GiB
Duration : 48mn 28s
Overall bit rate : 20.3 Mbps
Movie name : Секреты Шаолиня с Джейсоном Скоттом Ли / Secrets of Shaolin with Jason Scott Lee (2012) 3D
Encoded date : UTC 2015-02-15 16:37:44
Writing application : mkvmerge v5.8.0 ('No Sleep / Pillow') built on Sep 2 2012 15:37:04
Writing library : libebml v1.2.3 + libmatroska v1.3.0

Video
ID : 1
Format : AVC
Format/Info : Advanced Video Codec
Format profile : High@L4.1
Format settings, CABAC : Yes
Format settings, ReFrames : 4 frames
Codec ID : V_MPEG4/ISO/AVC
Duration : 48mn 28s
Bit rate : 19.2 Mbps
Width : 1 920 pixels
Height : 1 080 pixels
Display aspect ratio : 16:9
Frame rate mode : Constant
Frame rate : 23.976 fps
Color space : YUV
Chroma subsampling : 4:2:0
Bit depth : 8 bits
Scan type : Progressive
Bits/(Pixel*Frame) : 0.387
Stream size : 6.51 GiB (95%)
Title : BDRip by Ash61
Writing library : x264 core 138 r2358 9e941d1
Encoding settings : cabac=1 / ref=4 / deblock=1:-3:-3 / analyse=0x3:0x113 / me=umh / subme=10 / psy=1 / psy_rd=1.00:0.00 / mixed_ref=1 / me_range=32 / chroma_me=1 / trellis=2 / 8x8dct=1 / cqm=0 / deadzone=21,11 / fast_pskip=1 / chroma_qp_offset=-2 / threads=12 / lookahead_threads=3 / sliced_threads=0 / nr=0 / decimate=1 / interlaced=0 / bluray_compat=0 / constrained_intra=0 / bframes=10 / b_pyramid=2 / b_adapt=2 / b_bias=0 / direct=3 / weightb=1 / open_gop=0 / weightp=2 / keyint=250 / keyint_min=23 / scenecut=40 / intra_refresh=0 / rc_lookahead=60 / rc=crf / mbtree=1 / crf=17.0 / qcomp=0.70 / qpmin=10 / qpmax=69 / qpstep=4 / vbv_maxrate=40000 / vbv_bufsize=30000 / crf_max=0.0 / nal_hrd=none / frame-packing=4 / ip_ratio=1.40 / aq=1:0.70
Language : English
Default : Yes
Forced : No

Audio
ID : 2
Format : AC-3
Format/Info : Audio Coding 3
Mode extension : CM (complete main)
Format settings, Endianness : Big
Codec ID : A_AC3
Duration : 48mn 28s
Bit rate mode : Constant
Bit rate : 640 Kbps
Channel(s) : 6 channels
Channel positions : Front: L C R, Side: L R, LFE
Sampling rate : 48.0 KHz
Bit depth : 16 bits
Compression mode : Lossy
Stream size : 222 MiB (3%)
Title : Original - BD 3D Ger
Language : English
Default : Yes
Forced : No

Menu
00:00:00.000 : :1
00:09:59.974 : :2
00:19:59.990 : :3
00:29:59.965 : :4
00:39:59.981 : :5


Трекер:  [ 23-Фев-2015 17:00 ]

  

Скачать .torrent

Размер .torrent файла 36 KB


Размер: 7.08 GB
Хэш (hash) релиза: a81eccfd03c793996553835701d117b6a52a5648
Подписка на обновления:

Торренты, похожие на Секреты Шаолиня в 3Д Secrets of Shaolin with Jason Scott Lee скачать торрент

Форум Название Автор Размер S L Добавлен
3D Документальные фильмы ·· Секреты Шаолиня в 3Д / Secrets of Shaolin with Jason Scott Lee / Shaolin Bootcamp 3D (Donovan Chan) [2012, Документальный, Боевые искусства, BDremux, 1080p] BD3D Galfimbul 1513370419214.09 GB 0 0 1424700939

17:15

23-Фев-15

Еще никто не оставлял запись к записи скачать торрент Секреты Шаолиня в 3Д Secrets of Shaolin with Jason Scott Lee . Будь первым!

!Обратная связь