Скачать порно через торрент 55 & Still Bangin 3 55 & Все еще Bangin 3 UnionPeer.org бесплатно онлайн HD качество

Скачать новое порно 2015, 2014 новинки через торрент UnionPeer.org

Порно торрент бесплатно ЮнионПир.орг

Если у вас наблюдаются проблемы со скриншотами, переходом по ссылками, скачиванием торрентов - проблемы в блокировщике рекламы AdBlock. #хорошегоДня!


Статистика раздачи
Размер:  2.03 GB   |    Зарегистрирован:  2 года 9 месяцев   |    .torrent скачан:  318 раз   |   
Раздают:  1  
   
Загрузка...
 
Автор Сообщение

Galfimbul

avatar Galfimbul


55 & Still Bangin 3 / 55 & Все еще Bangin 3 Год производства: 2011 г.
Страна: USA
Жанр: Gonzo -> Mature Age -> Older Women -> 50+
Продолжительность: 01:21:37
Язык: Английский

Режиссер: Zoltan
Студия: Heatwave Raw

В ролях: Lena, Olga, Marina, Ania

Описание: Get ready for a wild ride! These matures are not to be mistaken with the prude, decomposing types... They are the most sexually charged whores you''ll ever encounter! The suck and screw like they were made for the camera! See what it takes to wear out one of these older models, you''ll be greatly surprised!

Доп. информация: http://www.hotmovies.com/video/207879/55-Still-Bangin-3/

Качество видео: DVDRip
Формат видео: MP4
Видео: Video: MPEG4 Video (H264) 1280x720 30.00fps 3424kbps [Video]
Аудио: Audio: AAC 48000Hz stereo 127kbps [Audio]
Format : MPEG-4
Format profile : Base Media
Codec ID : isom
File size : 2.03 GiB
Duration : 1h 21mn
Overall bit rate : 3 559 Kbps
Writing application : Lavf56.18.101

Video
ID : 1
Format : AVC
Format/Info : Advanced Video Codec
Format profile : Main@L3.1
Format settings, CABAC : Yes
Format settings, ReFrames : 3 frames
Codec ID : avc1
Codec ID/Info : Advanced Video Coding
Duration : 1h 21mn
Bit rate mode : Variable
Bit rate : 3 424 Kbps
Width : 1 280 pixels
Height : 720 pixels
Display aspect ratio : 16:9
Frame rate mode : Constant
Frame rate : 30.000 fps
Original frame rate : 60.000 fps
Color space : YUV
Chroma subsampling : 4:2:0
Bit depth : 8 bits
Scan type : Progressive
Bits/(Pixel*Frame) : 0.124
Stream size : 1.95 GiB (96%)
Writing library : Zencoder Video Encoding System

Audio
ID : 2
Format : AAC
Format/Info : Advanced Audio Codec
Format version : Version 4
Format profile : LC
Format settings, SBR : No
Codec ID : 40
Duration : 1h 21mn
Bit rate mode : Constant
Bit rate : 128 Kbps
Channel(s) : 2 channels
Channel positions : Front: L R
Sampling rate : 48.0 KHz
Stream size : 74.7 MiB (4%)


Трекер:  [ 21-Фев-2015 11:30 ]

  

Скачать .torrent

Размер .torrent файла 10 KB


Размер: 2.03 GB
Хэш (hash) релиза: 11c9e83638d2669ebf6f652530b15c6ae0222523

Еще никто не оставлял запись к записи скачать торрент 55 & Still Bangin 3 55 & Все еще Bangin 3 . Будь первым!

!Обратная связь