Скачать через торрент музыку Чужестранка Outlander бесплатно без регистрации torrent

Если у вас наблюдаются проблемы со скриншотами, переходом по ссылками, скачиванием торрентов - проблемы в блокировщике рекламы AdBlock. #хорошегоДня!


Статистика раздачи
Размер:  252 MB   |    Зарегистрирован:  2 года 8 месяцев   |    .torrent скачан:  41 раз   |   
Раздают:  1  
   
Загрузка...
 
Автор Сообщение

Galfimbul

avatar Galfimbul


Чужестранка / Outlander (Original Television Soundtrack), Vol. 1
Жанр: Score
Композитор: Bear McCreary
Год выпуска диска: 2015
Год выпуска фильма (сериала): 2014
Производитель диска: US
Издатель (лейбл): Madison Gate Records
Номер по каталогу: 40649
Аудиокодек: FLAC (*.flac)
Тип рипа: tracks+.cue
Битрейт аудио: lossless
Продолжительность: 00:50:34
Источник: собственный рип
Наличие сканов в содержимом раздачи: нет
Ссылки: Кинопоиск | IMDB | Wikipedia | SoundtrackCollector
MP3: [url=...4892911](Score) Чужестранка / Outlander (Original Television Soundtrack), Vol. 1 (Bear McCreary, Raya Yarbrough, Gillebride MacMillan) - 2015 (2014), MP3 (tracks) 320 kbps[/url]
01. People Disappear All The Time [0:03:32.01]
02. Bear McCreary (feat. Raya Yarbrough) / Outlander - The Skye Boat Song (Castle Leoch Version) [0:02:04.47]
03. Bear McCreary (feat. Raya Yarbrough) / Dance Of The Druids [0:04:38.71]
04. Fallen Through Time [0:05:38.21]
05. Castle Leoch [0:02:58.25]
06. Coming' Thro' The Rye [0:01:45.57]
07. Bear McCreary (feat. Gillebrìde MacMillan) / The Woman Of Balnain [0:05:02.72]
08. Mrs. Fitz [0:02:03.35]
09. The Losing Side Of History [0:04:52.03]
10. Clean Pease Strae [0:02:02.64]
11. The Marriage Contract [0:01:53.47]
12. The Wedding [0:03:46.21]
13. The Veil Of Time [0:10:14.39]
Exact Audio Copy V1.0 beta 3 from 29. August 2011

EAC extraction logfile from 19. February 2015, 12:23

Bear McCreary / Outlander

Used drive : PLEXTOR CD-R PX-230A Adapter: 0 ID: 0

Read mode : SecureUtilize accurate stream : YesDefeat audio cache : YesMake use of C2 pointers : No

Read offset correction : 738Overread into Lead-In and Lead-Out : NoFill up missing offset samples with silence : YesDelete leading and trailing silent blocks : NoNull samples used in CRC calculations : YesUsed interface : Native Win32 interface for Win NT & 2000Gap handling : Appended to previous track

Used output format : User Defined EncoderSelected bitrate : 1024 kBit/sQuality : HighAdd ID3 tag : NoCommand line compressor : C:\Program Files\Exact Audio Copy\Flac\flac.exeAdditional command line options : -6 -V -T "ARTIST=%artist%" -T "TITLE=%title%" -T "ALBUM=%albumtitle%" -T "DATE=%year%"-T "TRACKNUMBER=%tracknr%" -T "GENRE=%genre%" -T "COMMENT=%comment%" -T "ALBUMARTIST=%albuminterpret%" -T "COMPOSER=%composer%"-T "DISCNUMBER=%cdnumber%" -T "TOTALDISCS=%totalcds%" -T "TOTALTRACKS=%numtracks%" %source% -o %dest%

TOC of the extracted CD

Track | Start | Length | Start sector | End sector --------------------------------------------------------- 1 | 0:00.00 | 3:32.01 | 0 | 15900 2 | 3:32.01 | 2:04.47 | 15901 | 25247 3 | 5:36.48 | 4:38.71 | 25248 | 46168 4 | 10:15.44 | 5:38.21 | 46169 | 71539 5 | 15:53.65 | 2:58.25 | 71540 | 84914 6 | 18:52.15 | 1:45.57 | 84915 | 92846 7 | 20:37.72 | 5:02.72 | 92847 | 115568 8 | 25:40.69 | 2:03.35 | 115569 | 124828 9 | 27:44.29 | 4:52.03 | 124829 | 146731 10 | 32:36.32 | 2:02.64 | 146732 | 155945 11 | 34:39.21 | 1:53.47 | 155946 | 164467 12 | 36:32.68 | 3:46.21 | 164468 | 181438 13 | 40:19.14 | 10:14.39 | 181439 | 227527

Track 1

Filename C:\Music\01 - Bear McCreary - People Disappear All The Time.wav

Pre-gap length 0:00:02.00

Peak level 94.3 % Extraction speed 6.9 X Track quality 100.0 % Test CRC 9BFF9A2A Copy CRC 9BFF9A2A Track not present in AccurateRip database Copy OK

Track 2

Filename C:\Music\02 - Bear McCreary (feat. Raya Yarbrough) - Outlander - The Skye Boat Song (Castle Leoch Version).wav

Pre-gap length 0:00:02.38

Peak level 94.3 % Extraction speed 6.7 X Track quality 100.0 % Test CRC 1E676308 Copy CRC 1E676308 Track not present in AccurateRip database Copy OK

Track 3

Filename C:\Music\03 - Bear McCreary (feat. Raya Yarbrough) - Dance Of The Druids.wav

Pre-gap length 0:00:01.38

Peak level 94.4 % Extraction speed 7.2 X Track quality 100.0 % Test CRC BF2CECF8 Copy CRC BF2CECF8 Track not present in AccurateRip database Copy OK

Track 4

Filename C:\Music\04 - Bear McCreary - Fallen Through Time.wav

Pre-gap length 0:00:03.00

Peak level 94.3 % Extraction speed 6.6 X Track quality 99.9 % Test CRC 53DD5B70 Copy CRC 53DD5B70 Track not present in AccurateRip database Copy OK

Track 5

Filename C:\Music\05 - Bear McCreary - Castle Leoch.wav

Pre-gap length 0:00:01.38

Peak level 94.3 % Extraction speed 7.2 X Track quality 100.0 % Test CRC C7A0BB06 Copy CRC C7A0BB06 Track not present in AccurateRip database Copy OK

Track 6

Filename C:\Music\06 - Bear McCreary - Coming' Thro' The Rye.wav

Pre-gap length 0:00:01.38

Peak level 83.3 % Extraction speed 7.0 X Track quality 100.0 % Test CRC BA87A126 Copy CRC BA87A126 Track not present in AccurateRip database Copy OK

Track 7

Filename C:\Music\07 - Bear McCreary (feat. Gillebrìde MacMillan) - The Woman Of Balnain.wav

Pre-gap length 0:00:01.38

Peak level 94.4 % Extraction speed 8.1 X Track quality 100.0 % Test CRC EB418B70 Copy CRC EB418B70 Track not present in AccurateRip database Copy OK

Track 8

Filename C:\Music\08 - Bear McCreary - Mrs. Fitz.wav

Pre-gap length 0:00:01.08

Peak level 87.4 % Extraction speed 6.2 X Track quality 99.9 % Test CRC 0B0B5837 Copy CRC 0B0B5837 Track not present in AccurateRip database Copy OK

Track 9

Filename C:\Music\09 - Bear McCreary - The Losing Side Of History.wav

Pre-gap length 0:00:01.38

Peak level 94.6 % Extraction speed 8.7 X Track quality 100.0 % Test CRC 8FF74498 Copy CRC 8FF74498 Track not present in AccurateRip database Copy OK

Track 10

Filename C:\Music\10 - Bear McCreary - Clean Pease Strae.wav

Pre-gap length 0:00:01.00

Peak level 94.3 % Extraction speed 6.7 X Track quality 99.9 % Test CRC 78061BEA Copy CRC 78061BEA Track not present in AccurateRip database Copy OK

Track 11

Filename C:\Music\11 - Bear McCreary - The Marriage Contract.wav

Pre-gap length 0:00:01.20

Peak level 96.4 % Extraction speed 8.1 X Track quality 100.0 % Test CRC 4715DD57 Copy CRC 4715DD57 Track not present in AccurateRip database Copy OK

Track 12

Filename C:\Music\12 - Bear McCreary - The Wedding.wav

Pre-gap length 0:00:01.36

Peak level 65.6 % Extraction speed 9.1 X Track quality 100.0 % Test CRC 658CA388 Copy CRC 658CA388 Track not present in AccurateRip database Copy OK

Track 13

Filename C:\Music\13 - Bear McCreary - The Veil Of Time.wav

Pre-gap length 0:00:01.37

Peak level 94.3 % Extraction speed 9.6 X Track quality 99.9 % Test CRC 0E300942 Copy CRC 0E300942 Track not present in AccurateRip database Copy OK

None of the tracks are present in the AccurateRip database

No errors occurred

End of status report

==== Log checksum C1062FD03E327E4820FF984A3A864E03866014AF44DCD638FF5A46BE003EA895 ====
REM GENRE SoundtrackREM DATE 2014REM DISCID AA0BD90DREM COMMENT "ExactAudioCopy v1.0b3"PERFORMER "Bear McCreary"TITLE "Outlander"FILE "01 - Bear McCreary - People Disappear All The Time.wav" WAVE TRACK 01 AUDIO TITLE "People Disappear All The Time" PERFORMER "Bear McCreary" INDEX 01 00:00:00 TRACK 02 AUDIO TITLE "Outlander - The Skye Boat Song (Castle Leoch Version)" PERFORMER "Bear McCreary (feat. Raya Yarbrough)" INDEX 00 03:29:38FILE "02 - Bear McCreary (feat. Raya Yarbrough) - Outlander - The Skye Boat Song (Castle Leoch Version).wav" WAVE INDEX 01 00:00:00 TRACK 03 AUDIO TITLE "Dance Of The Druids" PERFORMER "Bear McCreary (feat. Raya Yarbrough)" INDEX 00 02:03:09FILE "03 - Bear McCreary (feat. Raya Yarbrough) - Dance Of The Druids.wav" WAVE INDEX 01 00:00:00 TRACK 04 AUDIO TITLE "Fallen Through Time" PERFORMER "Bear McCreary" INDEX 00 04:35:71FILE "04 - Bear McCreary - Fallen Through Time.wav" WAVE INDEX 01 00:00:00 TRACK 05 AUDIO TITLE "Castle Leoch" PERFORMER "Bear McCreary" INDEX 00 05:36:58FILE "05 - Bear McCreary - Castle Leoch.wav" WAVE INDEX 01 00:00:00 TRACK 06 AUDIO TITLE "Coming' Thro' The Rye" PERFORMER "Bear McCreary" INDEX 00 02:56:62FILE "06 - Bear McCreary - Coming' Thro' The Rye.wav" WAVE INDEX 01 00:00:00 TRACK 07 AUDIO TITLE "The Woman Of Balnain" PERFORMER "Bear McCreary (feat. Gillebride MacMillan)" INDEX 00 01:44:19FILE "07 - Bear McCreary (feat. Gillebride MacMillan) - The Woman Of Balnain.wav" WAVE INDEX 01 00:00:00 TRACK 08 AUDIO TITLE "Mrs. Fitz" PERFORMER "Bear McCreary" INDEX 00 05:01:64FILE "08 - Bear McCreary - Mrs. Fitz.wav" WAVE INDEX 01 00:00:00 TRACK 09 AUDIO TITLE "The Losing Side Of History" PERFORMER "Bear McCreary" INDEX 00 02:01:72FILE "09 - Bear McCreary - The Losing Side Of History.wav" WAVE INDEX 01 00:00:00 TRACK 10 AUDIO TITLE "Clean Pease Strae" PERFORMER "Bear McCreary" INDEX 00 04:51:03FILE "10 - Bear McCreary - Clean Pease Strae.wav" WAVE INDEX 01 00:00:00 TRACK 11 AUDIO TITLE "The Marriage Contract" PERFORMER "Bear McCreary" INDEX 00 02:01:44FILE "11 - Bear McCreary - The Marriage Contract.wav" WAVE INDEX 01 00:00:00 TRACK 12 AUDIO TITLE "The Wedding" PERFORMER "Bear McCreary" INDEX 00 01:52:11FILE "12 - Bear McCreary - The Wedding.wav" WAVE INDEX 01 00:00:00 TRACK 13 AUDIO TITLE "The Veil Of Time" PERFORMER "Bear McCreary" INDEX 00 03:44:59FILE "13 - Bear McCreary - The Veil Of Time.wav" WAVE INDEX 01 00:00:00


Трекер:  [ 19-Фев-2015 20:00 ]

  

Скачать .torrent

Размер .torrent файла 6 KB


Размер: 252 MB
Хэш (hash) релиза: 40a6d19c5a6745a310c8f6b08095029d7afcadde

Торренты, похожие на Чужестранка Outlander скачать торрент

Форум Название Автор Размер S L Добавлен
Саундтреки к фильмам и мультфильмам (lossless) ·· (Score / TV) Чужестранка / Outlander (Original Television Soundtrack) - Season 2 (by Bear McCreary) - 2016, FLAC (tracks+.cue), lossless Galfimbul 482773214460 MB 0 0 1478632497

22:14

8-Ноя-16

Саундтреки к фильмам и мультфильмам (mp3) ·· (Score/TV) Чужестранка / Outlander (Original Television Soundtrack) - Season 2 (by Bear McCreary) - 2016, MP3 (tracks) 320 kbps Galfimbul 188008184179 MB 0 0 1477682212

22:16

28-Окт-16

Саундтреки к фильмам и мультфильмам (lossless) ·· (Score / TV) Чужестранка / Outlander (Original Television Soundtrack) - Season 2 (by Bear McCreary) - 2016, FLAC (tracks+.cue), lossless Galfimbul 410717417392 MB 0 0 1477680291

21:44

28-Окт-16

Саундтреки к фильмам и мультфильмам (mp3) ·· (Score) Чужестранка / Outlander: Season 1 - Vol. 2 (Music From The Starz Series) (by Bear McCreary) - 2015, MP3, 320 kbps Galfimbul 160121062153 MB 0 0 1443917663

03:14

4-Окт-15

Саундтреки к фильмам и мультфильмам (mp3) ·· (Score) Чужестранка / Outlander (Original Television Soundtrack), Vol. 1 (Bear McCreary, Raya Yarbrough, Gillebride MacMillan) - 2015 (2014), MP3 (tracks) 320 kbps Galfimbul 122923900117 MB 1 1 1425836926

20:48

8-Мар-15

Саундтреки к фильмам и мультфильмам (mp3) ·· (Score) Чужестранка / Outlander (Original Television Soundtrack), Vol. 1 (Bear McCreary, Raya Yarbrough, Gillebrìde MacMillan) - 2015 (2014), MP3 (tracks) 320 kbps Galfimbul 123206952117 MB 0 0 1424362613

19:16

19-Фев-15

Саундтреки к фильмам и мультфильмам (lossless) ·· (Score) Чужестранка / Outlander. Main Title (Skye Boat Song. Single) (Bear McCreary) {WEB} - 2014, FLAC (tracks) lossless Galfimbul 97506869 MB 0 0 1418672035

22:33

15-Дек-14

Еще никто не оставлял запись к записи скачать торрент Чужестранка Outlander . Будь первым!

!Обратная связь