Скачать через торрент Лихие космические пираты: Бездна Гиперпространства Mouretsu Pirates: Abyss of Hyperspace бесплатно Аниме Все серии на русском torrent

Если у вас наблюдаются проблемы со скриншотами, переходом по ссылками, скачиванием торрентов - проблемы в блокировщике рекламы AdBlock. #хорошегоДня!


Статистика раздачи
Размер:  2.1 GB   |    Зарегистрирован:  2 года 9 месяцев   |    .torrent скачан:  53 раза   |   
Раздают:  1  
   
Загрузка...
 
Автор Сообщение

Galfimbul

avatar Galfimbul



Страна: Япония
Год выпуска: 2014 г.
Жанр: приключения, фантастика
Тип: Movie
Продолжительность: 93 мин.
Режиссер: Сато Тацуо
Студия: Satelight

Описание: Марика Като, студентка третьего курса женской академии «Белый феникс», является законным космическим пиратом. Дни Марики очень загружены: учеба, занятия в ее школьном яхт-клубе, работа в кафе и должность капитана пиратского космического корабля Бэнтэнмару. Однажды, Марика получает работу ограбить пассажирское судно высокого класса, и она обнаруживает в списке пассажиров Канату Мугена, мальчика, который обладает "Галактическим пропуском». Таким образом, начинаются приключения пиратов и молодого мальчика.
Качество: BDRip
Тип релиза: Без хардсаба
Формат видео: MP4
Наличие линковки: Нет
Релиз/Автор рипа: SEED
Видео: H264/AVC, 8 bit, 1280x720, 2017 kbps, 23.976 fps
Аудио: AAC, 439 kbps, 48 kHz, 6ch Язык Японский ; (в составе контейнера)
Аудио 2: AAC, 132 kbps, 48 kHz, 2ch Язык Японский ; (в составе контейнера) (комментарии)
Аудио 3: AAC, 197 kbps, 48 kHz, 2ch Язык Русский ; (внешним файлом)
Субтитры: ASS, внешние Язык субтитров русский ; Перевод: Petrokl
Озвучка:
<ol class="post-ul">
двухголосая (муж./жен.) от Inspector Gadjet & NikaLenina (AniDub)
</ol>
[url]...4885847[/url] - наличие русскоязычной дорожки, другое разрешение: 720p.
[url]...4942098[/url] - другое разрешение: 720p.
GeneralComplete name : **\Moretsu Uchuu Kaizoku - ABYSS OF HYPERSPACE [BD] [720p]\[SEED] Mouretsu Pirates The Movie Abyss of Hyperspace (BD 1280x720 AVC AAC).mp4Format : MPEG-4Format profile : Base MediaCodec ID : isomFile size : 1.69 GiBDuration : 1h 32mnOverall bit rate mode : VariableOverall bit rate : 2 599 KbpsMovie name : Mouretsu Pirates The Movie Abyss of Hyperspace (BD 1280x720 AVC AACx3 [2 0+5 1+2 0])ContentType : Short FilmEncoded date : UTC 2014-12-11 10:24:01Tagged date : UTC 2014-12-11 10:25:53Writing application : MkvToMp4 version: 0.224 (x32)HDVideo : Yes

VideoID : 1Format : AVCFormat/Info : Advanced Video CodecFormat profile : High@L4.0Format settings, CABAC : YesFormat settings, ReFrames : 6 framesCodec ID : avc1Codec ID/Info : Advanced Video CodingDuration : 1h 32mnBit rate : 2 017 KbpsMaximum bit rate : 17.0 MbpsWidth : 1 280 pixelsHeight : 720 pixelsDisplay aspect ratio : 16:9Frame rate mode : ConstantFrame rate : 23.976 fpsColor space : YUVChroma subsampling : 4:2:0Bit depth : 8 bitsScan type : ProgressiveBits/(Pixel*Frame) : 0.091Stream size : 1.31 GiB (78%)Title : VideoLanguage : EnglishEncoded date : UTC 2014-12-11 10:24:01Tagged date : UTC 2014-12-11 10:24:49

Audio #1ID : 2Format : AACFormat/Info : Advanced Audio CodecFormat profile : LCCodec ID : 40Duration : 1h 32mnBit rate mode : VariableBit rate : 439 KbpsMaximum bit rate : 602 KbpsChannel(s) : 2 channelsChannel(s)_Original : 6 channelsChannel positions : Front: L C R, Side: L R, LFESampling rate : 48.0 KHzCompression mode : LossyStream size : 292 MiB (17%)Title : Audio / AudioLanguage : JapaneseEncoded date : UTC 2014-12-11 10:24:44Tagged date : UTC 2014-12-11 10:24:49

Audio #2ID : 3Format : AACFormat/Info : Advanced Audio CodecFormat profile : LCCodec ID : 40Duration : 1h 32mnBit rate mode : VariableBit rate : 132 KbpsMaximum bit rate : 216 KbpsChannel(s) : 2 channelsChannel positions : Front: L RSampling rate : 48.0 KHzCompression mode : LossyStream size : 87.6 MiB (5%)Title : Audio Commentary / Audio CommentaryLanguage : JapaneseEncoded date : UTC 2014-12-11 10:24:47Tagged date : UTC 2014-12-11 10:24:49

Audio #3Format : AACFormat/Info : Advanced Audio CodecFormat profile : LCCodec ID : 40Duration : 1h 32mnBit rate mode : VariableBit rate : 197 KbpsMaximum bit rate : 259 KbpsChannel(s) : 2 channelsChannel positions : Front: L RSampling rate : 48.0 KHzCompression mode : LossyStream size : 131 MiB (12%)Title : [AniDUB]Language : RussianEncoded date : UTC 2015-01-18 16:03:08Tagged date : UTC 2015-01-18 16:03:11


Трекер:  [ 18-Фев-2015 22:30 ]

  

Скачать .torrent

Размер .torrent файла 12 KB


Размер: 2.1 GB
Хэш (hash) релиза: 37a7a1d35191cf71afb4d7b5adc0517958d98880
Подписка на обновления:

Еще никто не оставлял запись к записи скачать торрент Лихие космические пираты: Бездна Гиперпространства Mouretsu Pirates: Abyss of Hyperspace . Будь первым!

!Обратная связь