Скачать порно через торрент Real Slut Party 21 Настоящая Вечеринка Шлюх # 21 UnionPeer.org бесплатно онлайн HD качество

Скачать новое порно 2015, 2014 новинки через торрент UnionPeer.org

Порно торрент бесплатно ЮнионПир.орг

Если у вас наблюдаются проблемы со скриншотами, переходом по ссылками, скачиванием торрентов - проблемы в блокировщике рекламы AdBlock. #хорошегоДня!


Статистика раздачи
Размер:  1.92 GB   |    Зарегистрирован:  2 года 6 месяцев   |    .torrent скачан:  270 раз   |   
Раздают:  1  
   
Загрузка...
 
Автор Сообщение

Galfimbul

avatar Galfimbul


Real Slut Party 21 / Настоящая Вечеринка Шлюх # 21 Год производства: 2014 г.
Страна: USA
Жанр: 18+ Teens, College, Gonzo, Orgy
Продолжительность: 2 hour and 52 minutes.
Язык: Английский

Студия: MOFOS

В ролях: Alina Li Amy Fair Bailey (V) Christina Snow Gigi Loren Giselle Mona J.C. Simpson Sienna Day Stella May Valentina (III)

Описание: Alina, Bailey and Stella May are amateur girls flashing on the streets. Ami and Christina are cunning linguists. Brandy, Sienna and Tammy are having an amateur girls sex party. Gigi and Piper are champions of strip pong. Gisele, JC and Valentina want fries with a side of cock!

Разбит на эпизоды: Да
Качество видео: DVDRip
Формат видео: MP4
Видео: Video: MPEG4 Video (H264) 720x404 29.97fps 1499kbps [Video]
Аудио: Audio: AAC 48000Hz stereo 127kbps [Audio]
Format : MPEG-4
Format profile : Base Media
Codec ID : isom
File size : 430 MiB
Duration : 1-36mn 48s. 2- 34mn 49s. 3-27mn 11s. 4- 48mn 35s. 5-20mn 44s.
Overall bit rate : 1 635 Kbps
Writing application : Lavf55.12.100

Video
ID : 2
Format : AVC
Format/Info : Advanced Video Codec
Format profile : Main@L3.0
Format settings, CABAC : Yes
Format settings, ReFrames : 1 frame
Codec ID : avc1
Codec ID/Info : Advanced Video Coding
Duration :1- 36mn 48s. 2- 34mn 49s. 3-27mn 11s. 4- 48mn 35s. 5-20mn 44s.
Bit rate mode : Variable
Bit rate : 1 500 Kbps
Width : 720 pixels
Height : 404 pixels
Display aspect ratio : 16:9
Frame rate mode : Constant
Frame rate : 29.970 fps
Color space : YUV
Chroma subsampling : 4:2:0
Bit depth : 8 bits
Scan type : Progressive
Bits/(Pixel*Frame) : 0.172
Stream size : 395 MiB (92%)

Audio
ID : 1
Format : AAC
Format/Info : Advanced Audio Codec
Format version : Version 4
Format profile : LC
Format settings, SBR : No
Codec ID : 40
Duration : 1- 36mn 48s. 2- 34mn 49s. 3-27mn 11s. 4- 48mn 35s. 5-20mn 44s.
Bit rate mode : Constant
Bit rate : 128 Kbps
Channel(s) : 2 channels
Channel positions : Front: L R
Sampling rate : 48.0 KHz
Stream size : 33.7 MiB (8%)


Трекер:  [ 13-Фев-2015 19:30 ]

  

Скачать .torrent

Размер .torrent файла 20 KB


Размер: 1.92 GB
Хэш (hash) релиза: a7d24a2ee1a4d0b73ac41d5c34434af4804bcb36

Еще никто не оставлял запись к записи скачать торрент Real Slut Party 21 Настоящая Вечеринка Шлюх # 21 . Будь первым!

!Обратная связь