Скачать порно через торрент Real Slut Party 22 Настоящая Вечеринка Шлюх # 22 UnionPeer.org бесплатно онлайн HD качество

Скачать новое порно 2015, 2014 новинки через торрент UnionPeer.org

Порно торрент бесплатно ЮнионПир.орг

Если у вас наблюдаются проблемы со скриншотами, переходом по ссылками, скачиванием торрентов - проблемы в блокировщике рекламы AdBlock. #хорошегоДня!


Статистика раздачи
Размер:  1.42 GB   |    Зарегистрирован:  2 года 6 месяцев   |    .torrent скачан:  191 раз   |   
Раздают:  1  
   
Загрузка...
 
Автор Сообщение

Galfimbul

avatar Galfimbul


Real Slut Party 22 / Настоящая Вечеринка Шлюх # 22 Год производства: 2015 г.
Страна: USA
Жанр: Gonzo, Interracial, Amateur
Продолжительность: 3 hour and 03 minutes.
Язык: Английский

Студия: MOFOS

В ролях: Ava Taylor Dee Dee Janice Griffith Kiara Knight Layla Adams Marina Angel Missy Martinez Selma Sins Serena Torres Sophia Steele

Описание: College craziness and pussy packed parties! Ava and Serena are sippin` and strippin`! Belle, Janice and Kiara have a sexy send-off! Chanel, Jasmine and Missy are students fucked hard at a sex party! Dee Dee and Marina... football and titties, fuck yeah! Layla and Selma are hotel hos!

Разбит на эпизоды: Да
Качество видео: DVDRip
Формат видео: MP4
Видео: Video: MPEG4 Video (H264) 720x404 23.98fps 999kbps [Video]
Аудио: Audio: AAC 48000Hz stereo 127kbps [Audio]
Format : MPEG-4
Format profile : Base Media
Codec ID : isom
File size : 168 MiB
Duration :1- 20mn 41s 2- 51mn08s. 3-35mn 12s. 4- 38mn 46s. 5-33mn 37s.
Overall bit rate : 1 132 Kbps
Writing application : Lavf55.12.100

Video
ID : 2
Format : AVC
Format/Info : Advanced Video Codec
Format profile : Main@L3.0
Format settings, CABAC : Yes
Format settings, ReFrames : 1 frame
Codec ID : avc1
Codec ID/Info : Advanced Video Coding
Duration : 1- 20mn 41s. 2- 51mn08s. 3-35mn 12s. 4- 38mn 46s. 5-33mn 37s.
Bit rate mode : Variable
Bit rate : 1 000 Kbps
Width : 720 pixels
Height : 404 pixels
Display aspect ratio : 16:9
Frame rate mode : Constant
Frame rate : 23.976 fps
Color space : YUV
Chroma subsampling : 4:2:0
Bit depth : 8 bits
Scan type : Progressive
Bits/(Pixel*Frame) : 0.143
Stream size : 148 MiB (88%)

Audio
ID : 1
Format : AAC
Format/Info : Advanced Audio Codec
Format version : Version 4
Format profile : LC
Format settings, SBR : No
Codec ID : 40
Duration :1- 20mn 41s 2- 51mn08s. 3-35mn 12s. 4- 38mn 46s. 5-33mn 37s.
Bit rate mode : Constant
Bit rate : 128 Kbps
Channel(s) : 2 channels
Channel positions : Front: L R
Sampling rate : 48.0 KHz
Stream size : 19.0 MiB (11%)


Трекер:  [ 13-Фев-2015 19:30 ]

  

Скачать .torrent

Размер .torrent файла 15 KB


Размер: 1.42 GB
Хэш (hash) релиза: 22a3d70e81deb68a8b627ef76ccc64983208561c

Еще никто не оставлял запись к записи скачать торрент Real Slut Party 22 Настоящая Вечеринка Шлюх # 22 . Будь первым!

!Обратная связь