Скачать порно через торрент My Best Friends Dad 3 Папа моего лучшего друга UnionPeer.org бесплатно онлайн HD качество

Скачать новое порно 2015, 2014 новинки через торрент UnionPeer.org

Порно торрент бесплатно ЮнионПир.орг

Если у вас наблюдаются проблемы со скриншотами, переходом по ссылками, скачиванием торрентов - проблемы в блокировщике рекламы AdBlock. #хорошегоДня!


Статистика раздачи
Размер:  1.18 GB   |    Зарегистрирован:  2 года 6 месяцев   |    .torrent скачан:  252 раза   |   
Раздают:  1  
   
Загрузка...
 
Автор Сообщение

Galfimbul

avatar Galfimbul


My Best Friends Dad 3 / Папа моего лучшего друга Год производства: 2015 г.
Страна: USA
Жанр: Straight, Oral, Big Boobs, Older Men, Teens
Продолжительность: 1 hrs. 43 mins.
Язык: Английский

Режиссер: Nate Liquor, Mike Quasar
Студия: Zero Tolerance

В ролях: Alexis Adams, Maci Winslett, Daisy Haze, Josie Jagger, Will Powers, Tommy Pistol, Anthony Rosano, Mark Wood

Описание: It''s always fun to hang out with your friends....especially when they''re not home! These naughty young things are looking to bag the BFF''s father in this steamy hardcore romp that steps over the line of friendship just enough to feel sooo good! Seductive little sluts always get their way, and this is no exception since the dads just can''t say no!

Разбит на эпизоды: Да
Качество видео: WEBRip/SD
Формат видео: MP4
Видео: Video: MPEG4 Video 856x480 29.97fps 1500kbps [Video]
Аудио: Audio: AAC 44100Hz stereo 151kbps [Audio]
Format : MPEG-4
Format profile : Base Media
Codec ID : isom
File size : 301 MiB
Duration :1- 25mn 24s. 2-27mn 28s. 3-23mn 50s. 4-24mn 34s.
Overall bit rate : 1 658 Kbps
Encoded date : UTC 2015-02-12 17:22:14
Tagged date : UTC 2015-02-12 17:22:14
Writing application : Lavf51.12.1

Video
ID : 1
Format : MPEG-4 Visual
Format profile : Simple@L1
Format settings, BVOP : No
Format settings, QPel : No
Format settings, GMC : No warppoints
Format settings, Matrix : Default (H.263)
Codec ID : 20
Duration : 1- 25mn 24s. 1- 25mn 24s. 2-27mn 28s. 3-23mn 50s. 4-24mn 34s.
Bit rate mode : Variable
Bit rate : 1 501 Kbps
Width : 856 pixels
Height : 480 pixels
Display aspect ratio : 16:9
Frame rate mode : Constant
Frame rate : 29.970 fps
Color space : YUV
Chroma subsampling : 4:2:0
Bit depth : 8 bits
Scan type : Progressive
Bits/(Pixel*Frame) : 0.122
Stream size : 273 MiB (91%)
Writing library : Lavc51.40.4
Encoded date : UTC 2015-02-12 17:22:14
Tagged date : UTC 2015-02-12 17:22:14

Audio
ID : 2
Format : AAC
Format/Info : Advanced Audio Codec
Format version : Version 4
Format profile : LC
Format settings, SBR : No
Codec ID : 40
Duration : 1- 25mn 23s. 1- 25mn 24s. 2-27mn 28s. 3-23mn 50s. 4-24mn 34s.
Bit rate mode : Variable
Bit rate : 152 Kbps
Channel(s) : 2 channels
Channel positions : Front: L R
Sampling rate : 44.1 KHz
Stream size : 27.6 MiB (9%)
Encoded date : UTC 2015-02-12 17:22:14
Tagged date : UTC 2015-02-12 17:22:14


Трекер:  [ 13-Фев-2015 17:30 ]

  

Скачать .torrent

Размер .torrent файла 12 KB


Размер: 1.18 GB
Хэш (hash) релиза: 0ee3f49d889ce84548e037390bffb3695115bcc0

Торренты, похожие на My Best Friends Dad 3 Папа моего лучшего друга скачать торрент

Форум Название Автор Размер S L Добавлен
Зарубежные порнофильмы ·· My Best Friends Dad 3 / Папа моего лучшего друга 3(Nate Liquor, Mike Quasar, Zero Tolerance) [2015 г., Straight, Oral, Big Boobs, Older Men, Teens, WEB-DL, 1080p] Galfimbul 73303547496.83 GB 0 0 1424799207

20:33

24-Фев-15

Порно фильмы без сюжета ·· My Best Friend's Dad 3 / Папа Моего Лучшего Друга 3 (Nate Liquor, Zero Tolerance) [2015 г., 18+ Teens, All Sex, Older Men, DVDRip] [KuKaS] Galfimbul 13318894461.24 GB 0 0 1429260844

11:54

17-Апр-15

Еще никто не оставлял запись к записи скачать торрент My Best Friends Dad 3 Папа моего лучшего друга . Будь первым!

!Обратная связь