Скачать порно через торрент [Sperma-Studio.com Gem-Film.com] Elinas fuck party UnionPeer.org бесплатно онлайн HD качество

Скачать новое порно 2015, 2014 новинки через торрент UnionPeer.org

Порно торрент бесплатно ЮнионПир.орг

Если у вас наблюдаются проблемы со скриншотами, переходом по ссылками, скачиванием торрентов - проблемы в блокировщике рекламы AdBlock. #хорошегоДня!


Статистика раздачи
Размер:  1.85 GB   |    Зарегистрирован:  2 года 6 месяцев   |    .torrent скачан:  1267 раз   |   
Раздают:  1  
   
Загрузка...
 
Автор Сообщение

Galfimbul

avatar Galfimbul


Elinas fuck party / Спермопати Элины и Трикси

Год производства: 2015 г.
Страна: Германия
Жанр: Blowjobs, Bukkake, Gangbang, Creampie
Продолжительность: 00:36:41

Студия: sperma-studio.com & gem-film.com

В ролях: Elinas and Trixi

Описание: Блондинка, брюнетка и толпа немецких бюргеров!

Тип HD видео: 720p
Качество видео: SiteRip
Формат видео: MP4
Видео: MPEG4 Video (H264) 1280x720 25fps 7040kbps
Аудио: AAC 48000Hz stereo 157kbps
Format : MPEG-4
Format profile : Base Media
Codec ID : isom
File size : 1.85 GiB
Duration : 36mn 41s
Overall bit rate mode : Variable
Overall bit rate : 7 200 Kbps
Encoded date : UTC 2015-02-05 23:27:40
Tagged date : UTC 2015-02-05 23:27:40

Video
ID : 1
Format : AVC
Format/Info : Advanced Video Codec
Format profile : Baseline@L5.0
Format settings, CABAC : No
Format settings, ReFrames : 3 frames
Format settings, GOP : M=1, N=33
Codec ID : avc1
Codec ID/Info : Advanced Video Coding
Duration : 36mn 41s
Bit rate mode : Variable
Bit rate : 7 040 Kbps
Maximum bit rate : 8 000 Kbps
Width : 1 280 pixels
Height : 720 pixels
Display aspect ratio : 16:9
Frame rate mode : Constant
Frame rate : 25.000 fps
Standard : PAL
Color space : YUV
Chroma subsampling : 4:2:0
Bit depth : 8 bits
Scan type : Progressive
Bits/(Pixel*Frame) : 0.306
Stream size : 1.80 GiB (98%)
Title : Ì
Language : English
Encoded date : UTC 2015-02-05 23:27:40
Tagged date : UTC 2015-02-05 23:27:40
Color range : Limited
mdhd_Duration : 2201000

Audio
ID : 2
Format : AAC
Format/Info : Advanced Audio Codec
Format profile : LC
Codec ID : 40
Duration : 36mn 41s
Bit rate mode : Variable
Bit rate : 157 Kbps
Channel(s) : 2 channels
Channel positions : Front: L R
Sampling rate : 48.0 KHz
Compression mode : Lossy
Stream size : 41.3 MiB (2%)
Title : Ì
Language : English
Encoded date : UTC 2015-02-05 23:27:40
Tagged date : UTC 2015-02-05 23:27:40
mdhd_Duration : 2201000
Альтернатива:


Трекер:  [ 10-Фев-2015 07:00 ]

  

Скачать .torrent

Размер .torrent файла 19 KB


Размер: 1.85 GB
Хэш (hash) релиза: f4860d78202f08cc9d4d1e6e48fa049613447ea2

Еще никто не оставлял запись к записи скачать торрент [Sperma-Studio.com Gem-Film.com] Elinas fuck party . Будь первым!

!Обратная связь