Heisei Tanuki Gassen Ponpoko torrent

, , - AdBlock. #!


41.55 GB   |    :  2 7    |    .torrent :  43    |   
1  
   
...
 

Galfimbul

avatar Galfimbul


/ Heisei Tanuki Gassen Ponpoko / 平成狸合戦ぽんぽこ / Pom Poko [url=...4722800] [/url][url=...4612785] [/url][url=...4629918] [/url][url=...3690943] [/url][url=...4766434] [/url][url=...4651642] [/url][url=...4901371] [/url][url=...4178733] [/url] [url=...4851914] [/url][url=...4119317] [/url][url=...3875703] [/url][url=...4465304] [/url]
:
: 1994 .
: , ,
: Movie
: 119 .
: Isao Takahata
: Ghibli

:"" , . ?
. , . , . , . . . . , . , . , . , . , , : , . , .
"" . ?
. , ? ! , . , , , . , . 1. , . . .
. - , , , "" . ?
, , "". , . , , . . : , , , 3D, "". , , . . , , "".
, (" " "") : . .
, , , , , , . "" : , , , . . , , ! 2006.

: Blu-ray
:
: M2TS
: MPEG-4 AVC Video / 1920x1080 / 32517 kbps / 23,976 fps
1: DTS-HD Master Audio / 2.0 / 48 kHz / 2126 kbps / 24-bit (DTS Core: 2.0 / 48 kHz / 1509 kbps / 24-bit)
2: LPCM Audio / 2.0 / 48 kHz / 1536 kbps / 16-bit
3: Dolby Digital Audio 2.0 / 48 kHz / 192 kbps / 16-bit / Dolby Surround
4: Dolby Digital Audio 2.0 / 48 kHz / 192 kbps / 16-bit / Dolby Surround
5: [ ()] Dolby Digital Audio 2.0 / 48 kHz / 192 kbps / 16-bit
6: [. (, )] Dolby Digital Audio 2.0 / 48 kHz / 192 kbps / 16-bit
1: ,
2: ,
3: ,
4: ,
5: , [ RAnKO . BurniN∙SnikerS]

[url=...mode=viewprofile&u=3380543]TFloater[/url]'
[url=...mode=viewprofile&u=19950456]Tuzik55555[/url]
Disc Title: 1994 PompokoDisc Size: 44 610 864 106 bytesProtection: AACSBD-Java: NoBDInfo: 0.5.8

Notes:

BDINFO HOME: Cinema Squid http://www.cinemasquid.com/blu-ray/tools/bdinfo

INCLUDES FORUMS REPORT FOR: AVS Forum Blu-ray Audio and Video Specifications Thread http://www.avsforum.com/avs-vb/showthread.php?t=1155731

********************PLAYLIST: 00000.MPLS********************

<--- BEGIN FORUMS PASTE --->

Total Video
Title Codec Length Movie Size Disc Size Bitrate Bitrate Main Audio Track Secondary Audio Track
----- ------ ------- -------------- -------------- ------- ------- ------------------ ---------------------
00000.MPLS AVC 1:59:11 35299221504 44610864106 39,49 32,52 DTS-HD Master 2.0 2126Kbps (48kHz/24-bit)
DISC INFO:

Disc Title: 1994 Pompoko
Disc Size: 44610864106 bytes
Protection: AACS
BD-Java: No
BDInfo: 0.5.8

PLAYLIST REPORT:

Name: 00000.MPLS
Length: 1:59:11.310 (h:m:s.ms)
Size: 35299221504 bytes
Total Bitrate: 39,49 Mbps

VIDEO:

Codec Bitrate Description
----- ------- -----------
MPEG-4 AVC Video 32517 kbps 1080p / 23,976 fps / 16:9 / High Profile 4.1

AUDIO:

Codec Language Bitrate Description
----- -------- ------- -----------
DTS-HD Master Audio Japanese 2126 kbps 2.0 / 48 kHz / 2126 kbps / 24-bit (DTS Core: 2.0 / 48 kHz / 1509 kbps / 24-bit)
LPCM Audio English 1536 kbps 2.0 / 48 kHz / 1536 kbps / 16-bit
Dolby Digital Audio French 192 kbps 2.0 / 48 kHz / 192 kbps / Dolby Surround
Dolby Digital Audio German 192 kbps 2.0 / 48 kHz / 192 kbps / Dolby Surround
Dolby Digital Audio Russian 192 kbps 2.0 / 48 kHz / 192 kbps
Dolby Digital Audio Russian 192 kbps 2.0 / 48 kHz / 192 kbps

SUBTITLES:

Codec Language Bitrate Description
----- -------- ------- -----------
Presentation Graphics Japanese 31,649 kbps
Presentation Graphics English 40,299 kbps
Presentation Graphics French 43,202 kbps
Presentation Graphics German 51,612 kbps
Presentation Graphics Russian 34,941 kbps

FILES:

Name Time In Length Size Total Bitrate
---- ------- ------ ---- -------------
00000.M2TS 0:00:00.000 1:59:11.310 35299221504 39488

CHAPTERS:

Number Time In Length Avg Video Rate Max 1-Sec Rate Max 1-Sec Time Max 5-Sec Rate Max 5-Sec Time Max 10Sec Rate Max 10Sec Time Avg Frame Size Max Frame Size Max Frame Time
------ ------- ------ -------------- -------------- -------------- -------------- -------------- -------------- -------------- -------------- -------------- --------------
1 0:00:00.000 0:00:29.028 23032 kbps 56486 kbps 00:00:00.959 31741 kbps 00:00:00.959 29185 kbps 00:00:00.959 119908 bytes 727908 bytes 00:00:29.028
2 0:00:29.028 0:04:50.707 32371 kbps 54184 kbps 00:01:38.348 40343 kbps 00:05:01.050 37581 kbps 00:02:29.524 168767 bytes 911581 bytes 00:01:11.488
3 0:05:19.736 0:04:46.536 32864 kbps 51014 kbps 00:05:44.719 40961 kbps 00:06:55.289 37651 kbps 00:08:37.433 171340 bytes 838673 bytes 00:09:26.065
4 0:10:06.272 0:04:42.198 32291 kbps 53548 kbps 00:12:02.346 40359 kbps 00:10:25.249 37754 kbps 00:11:55.881 168349 bytes 914793 bytes 00:14:14.520
5 0:14:48.470 0:03:54.692 34600 kbps 52688 kbps 00:15:47.905 40797 kbps 00:18:17.805 38255 kbps 00:18:02.372 180388 bytes 811884 bytes 00:17:36.472
6 0:18:43.163 0:05:28.536 33379 kbps 48060 kbps 00:21:18.318 40160 kbps 00:20:13.337 38661 kbps 00:18:54.633 174023 bytes 770787 bytes 00:20:08.624
7 0:24:11.700 0:04:44.909 33631 kbps 51822 kbps 00:28:08.937 41418 kbps 00:24:16.705 38509 kbps 00:24:17.455 175338 bytes 867185 bytes 00:26:06.565
8 0:28:56.609 0:04:06.246 32806 kbps 57242 kbps 00:28:59.654 40392 kbps 00:30:04.844 38430 kbps 00:31:02.068 171036 bytes 872953 bytes 00:32:55.765
9 0:33:02.855 0:04:58.381 31967 kbps 54667 kbps 00:34:28.441 40332 kbps 00:36:08.875 38283 kbps 00:35:01.599 166663 bytes 929501 bytes 00:34:19.766
10 0:38:01.237 0:05:39.714 31270 kbps 48344 kbps 00:40:44.608 40193 kbps 00:39:58.646 38065 kbps 00:39:19.315 163025 bytes 846125 bytes 00:41:07.548
11 0:43:40.951 0:06:07.450 31919 kbps 46793 kbps 00:47:35.978 41183 kbps 00:46:14.521 38557 kbps 00:46:14.521 166412 bytes 923338 bytes 00:44:09.730
12 0:49:48.402 0:05:46.929 33771 kbps 48785 kbps 00:55:21.860 40895 kbps 00:54:42.195 38266 kbps 00:55:04.050 176066 bytes 913992 bytes 00:50:33.155
13 0:55:35.332 0:05:21.112 32994 kbps 50245 kbps 00:56:17.207 40791 kbps 00:58:03.563 38787 kbps 00:59:44.455 172014 bytes 806438 bytes 00:55:36.249
14 1:00:56.444 0:04:44.242 31584 kbps 60022 kbps 01:03:26.803 40125 kbps 01:03:15.583 38483 kbps 01:04:43.504 164666 bytes 847403 bytes 01:01:54.877
15 1:05:40.686 0:03:35.298 31816 kbps 50734 kbps 01:08:54.130 39343 kbps 01:06:03.417 37247 kbps 01:07:46.854 165873 bytes 800210 bytes 01:06:06.337
16 1:09:15.985 0:07:05.591 34141 kbps 58180 kbps 01:09:39.133 40830 kbps 01:10:47.201 38239 kbps 01:15:22.643 177994 bytes 838534 bytes 01:09:39.717
17 1:16:21.577 0:05:22.530 31205 kbps 51950 kbps 01:20:25.695 40962 kbps 01:21:16.872 38258 kbps 01:20:09.221 162686 bytes 728631 bytes 01:17:34.232
18 1:21:44.107 0:05:34.167 31836 kbps 57141 kbps 01:25:01.179 40580 kbps 01:22:27.233 38359 kbps 01:24:33.568 165977 bytes 782256 bytes 01:21:50.030
19 1:27:18.274 0:06:25.968 26256 kbps 47478 kbps 01:31:18.473 40546 kbps 01:32:06.646 38204 kbps 01:32:44.183 136888 bytes 844158 bytes 01:32:39.262
20 1:33:44.243 0:04:49.789 31540 kbps 53066 kbps 01:38:17.391 40316 kbps 01:33:55.171 38116 kbps 01:33:51.375 164436 bytes 893223 bytes 01:34:51.686
21 1:38:34.033 0:06:06.491 34430 kbps 58179 kbps 01:39:26.418 40694 kbps 01:40:45.330 38532 kbps 01:38:49.715 179504 bytes 807431 bytes 01:42:43.657
22 1:44:40.524 0:06:18.878 34079 kbps 51665 kbps 01:50:21.406 40312 kbps 01:48:04.978 38216 kbps 01:47:03.041 177672 bytes 845818 bytes 01:49:21.304
23 1:50:59.402 0:03:37.967 35320 kbps 52175 kbps 01:53:45.026 40516 kbps 01:54:32.365 38652 kbps 01:52:51.347 184142 bytes 862240 bytes 01:51:21.841
24 1:54:37.370 0:04:32.939 34516 kbps 57810 kbps 01:59:04.762 40808 kbps 01:56:53.297 39030 kbps 01:58:22.136 179949 bytes 742222 bytes 01:57:30.251
25 1:59:10.309 0:00:01.001 77 kbps 0 kbps 00:00:00.000 0 kbps 00:00:00.000 0 kbps 00:00:00.000 419 bytes 528 bytes 01:59:11.269

STREAM DIAGNOSTICS:

File PID Type Codec Language Seconds Bitrate Bytes Packets
---- --- ---- ----- -------- -------------- -------------- ------------- -----
00000.M2TS 4113 (0x1011) 0x1B AVC 7151,186 32518 29067467969 158075282
00000.M2TS 4352 (0x1100) 0x86 DTS-HD MA jpn (Japanese) 7151,186 2126 1900687084 11455693
00000.M2TS 4353 (0x1101) 0x80 LPCM eng (English) 7151,186 1542 1378258756 8578374
00000.M2TS 4354 (0x1102) 0x81 AC3 fra (French) 7151,186 192 171631872 1117395
00000.M2TS 4355 (0x1103) 0x81 AC3 deu (German) 7151,186 192 171631872 1117395
00000.M2TS 4356 (0x1104) 0x81 AC3 rus (Russian) 7151,186 192 171596544 1117165
00000.M2TS 4357 (0x1105) 0x81 AC3 rus (Russian) 7151,186 192 171596544 1117165
00000.M2TS 4608 (0x1200) 0x90 PGS jpn (Japanese) 7151,186 32 28291094 169618
00000.M2TS 4609 (0x1201) 0x90 PGS eng (English) 7151,186 40 36024130 204563
00000.M2TS 4610 (0x1202) 0x90 PGS fra (French) 7151,186 43 38618653 220046
00000.M2TS 4611 (0x1203) 0x90 PGS deu (German) 7151,186 52 46137058 259003
00000.M2TS 4612 (0x1204) 0x90 PGS rus (Russian) 7151,186 35 31234357 178810
<pre>
<---- END FORUMS PASTE ---->

QUICK SUMMARY:

Disc Title: 1994 PompokoDisc Size: 44 610 864 106 bytesProtection: AACSBD-Java: NoPlaylist: 00000.MPLSSize: 35 299 221 504 bytesLength: 1:59:11.310Total Bitrate: 39,49 MbpsVideo: MPEG-4 AVC Video / 32517 kbps / 1080p / 23,976 fps / 16:9 / High Profile 4.1Audio: Japanese / DTS-HD Master Audio / 2.0 / 48 kHz / 2126 kbps / 24-bit (DTS Core: 2.0 / 48 kHz / 1509 kbps / 24-bit)Audio: English / LPCM Audio / 2.0 / 48 kHz / 1536 kbps / 16-bitAudio: French / Dolby Digital Audio / 2.0 / 48 kHz / 192 kbps / Dolby SurroundAudio: German / Dolby Digital Audio / 2.0 / 48 kHz / 192 kbps / Dolby SurroundAudio: Russian / Dolby Digital Audio / 2.0 / 48 kHz / 192 kbpsAudio: Russian / Dolby Digital Audio / 2.0 / 48 kHz / 192 kbpsSubtitle: Japanese / 31,649 kbpsSubtitle: English / 40,299 kbpsSubtitle: French / 43,202 kbpsSubtitle: German / 51,612 kbpsSubtitle: Russian / 34,941 kbps

********************PLAYLIST: 00001.MPLS********************

<--- BEGIN FORUMS PASTE --->
</pre>
Total Video
Title Codec Length Movie Size Disc Size Bitrate Bitrate Main Audio Track Secondary Audio Track
----- ------ ------- -------------- -------------- ------- ------- ------------------ ---------------------
00001.MPLS AVC 1:59:11 5992319040 44610864106 6,70 3,90 DD AC3 2.0 192Kbps
DISC INFO:

Disc Title: 1994 Pompoko
Disc Size: 44610864106 bytes
Protection: AACS
BD-Java: No
BDInfo: 0.5.8

PLAYLIST REPORT:

Name: 00001.MPLS
Length: 1:59:11.310 (h:m:s.ms)
Size: 5992319040 bytes
Total Bitrate: 6,70 Mbps

VIDEO:

Codec Bitrate Description
----- ------- -----------
MPEG-4 AVC Video 3898 kbps 1080p / 23,976 fps / 16:9 / High Profile 4.1
MPEG-4 AVC Video 2169 kbps 480p / 23,976 fps / 16:9 / High Profile 3.2

AUDIO:

Codec Language Bitrate Description
----- -------- ------- -----------
Dolby Digital Audio Japanese 192 kbps 2.0 / 48 kHz / 192 kbps / Dolby Surround

SUBTITLES:

Codec Language Bitrate Description
----- -------- ------- -----------
Presentation Graphics Russian 33,967 kbps

FILES:

Name Time In Length Size Total Bitrate
---- ------- ------ ---- -------------
00001.M2TS 0:00:00.000 1:59:11.310 5992319040 6703

CHAPTERS:

Number Time In Length Avg Video Rate Max 1-Sec Rate Max 1-Sec Time Max 5-Sec Rate Max 5-Sec Time Max 10Sec Rate Max 10Sec Time Avg Frame Size Max Frame Size Max Frame Time
------ ------- ------ -------------- -------------- -------------- -------------- -------------- -------------- -------------- -------------- -------------- --------------
1 0:00:00.000 0:00:29.028 3175 kbps 7644 kbps 00:00:25.525 5566 kbps 00:00:13.847 5119 kbps 00:00:11.928 16527 bytes 362643 bytes 00:00:11.970
2 0:00:29.028 0:04:50.707 4171 kbps 10004 kbps 00:00:40.373 8149 kbps 00:00:36.453 7026 kbps 00:00:36.453 21746 bytes 367411 bytes 00:01:13.656
3 0:05:19.736 0:04:46.536 4257 kbps 9406 kbps 00:08:17.705 7417 kbps 00:09:10.091 6914 kbps 00:09:08.047 22194 bytes 367682 bytes 00:06:29.680
4 0:10:06.272 0:04:42.198 3936 kbps 10465 kbps 00:11:00.451 7239 kbps 00:13:45.241 6028 kbps 00:14:33.414 20521 bytes 360775 bytes 00:10:37.136
5 0:14:48.470 0:03:54.692 3821 kbps 10191 kbps 00:18:32.069 5606 kbps 00:18:29.233 5210 kbps 00:18:15.385 19919 bytes 367150 bytes 00:17:36.513
6 0:18:43.163 0:05:28.536 3935 kbps 10905 kbps 00:21:38.839 8039 kbps 00:23:32.202 6875 kbps 00:23:29.199 20518 bytes 366364 bytes 00:19:27.457
7 0:24:11.700 0:04:44.909 3791 kbps 9075 kbps 00:28:34.003 6785 kbps 00:26:41.308 5682 kbps 00:27:54.714 19763 bytes 368103 bytes 00:28:43.513
8 0:28:56.609 0:04:06.246 3783 kbps 8129 kbps 00:30:37.961 5402 kbps 00:29:15.211 4961 kbps 00:28:57.193 19724 bytes 364446 bytes 00:30:46.970
9 0:33:02.855 0:04:58.381 3382 kbps 8842 kbps 00:34:14.927 7001 kbps 00:33:31.551 5505 kbps 00:33:26.504 17634 bytes 368625 bytes 00:35:02.517
10 0:38:01.237 0:05:39.714 3512 kbps 11736 kbps 00:39:51.764 6277 kbps 00:41:01.876 4951 kbps 00:41:25.941 18308 bytes 363428 bytes 00:43:17.303
11 0:43:40.951 0:06:07.450 3685 kbps 10198 kbps 00:48:39.458 8542 kbps 00:48:37.497 6977 kbps 00:48:34.786 19213 bytes 368480 bytes 00:47:23.423
12 0:49:48.402 0:05:46.929 3986 kbps 10116 kbps 00:53:57.943 7849 kbps 00:52:08.333 6426 kbps 00:51:50.732 20779 bytes 370168 bytes 00:55:03.466
13 0:55:35.332 0:05:21.112 3705 kbps 9752 kbps 00:56:40.772 6973 kbps 01:00:51.397 5614 kbps 01:00:46.434 19314 bytes 366823 bytes 00:58:20.330
14 1:00:56.444 0:04:44.242 3855 kbps 10486 kbps 01:01:30.061 8085 kbps 01:01:28.101 6157 kbps 01:01:26.557 20100 bytes 370167 bytes 01:04:28.072
15 1:05:40.686 0:03:35.298 4049 kbps 11348 kbps 01:07:51.275 7262 kbps 01:07:48.314 6844 kbps 01:07:49.315 21108 bytes 366816 bytes 01:07:14.196
16 1:09:15.985 0:07:05.591 3754 kbps 8791 kbps 01:11:18.357 5572 kbps 01:09:57.067 5312 kbps 01:09:52.062 19572 bytes 371346 bytes 01:09:31.167
17 1:16:21.577 0:05:22.530 3853 kbps 8933 kbps 01:17:50.040 7190 kbps 01:19:45.071 6563 kbps 01:17:24.973 20087 bytes 366789 bytes 01:18:57.858
18 1:21:44.107 0:05:34.167 3807 kbps 9423 kbps 01:23:14.406 7289 kbps 01:23:11.277 6579 kbps 01:23:08.358 19850 bytes 369297 bytes 01:25:23.576
19 1:27:18.274 0:06:25.968 3818 kbps 9430 kbps 01:32:07.605 7661 kbps 01:32:06.521 6578 kbps 01:32:04.560 19906 bytes 367976 bytes 01:31:03.833
20 1:33:44.243 0:04:49.789 4454 kbps 11568 kbps 01:38:22.104 7801 kbps 01:38:22.021 6767 kbps 01:38:21.186 23221 bytes 371523 bytes 01:35:48.576
21 1:38:34.033 0:06:06.491 4515 kbps 11074 kbps 01:41:47.601 9214 kbps 01:42:52.833 8105 kbps 01:42:49.705 23538 bytes 369029 bytes 01:43:27.743
22 1:44:40.524 0:06:18.878 4306 kbps 9586 kbps 01:48:45.977 7715 kbps 01:48:44.935 6917 kbps 01:47:30.569 22449 bytes 366380 bytes 01:45:34.703
23 1:50:59.402 0:03:37.967 4270 kbps 10176 kbps 01:51:46.950 7284 kbps 01:51:36.981 7149 kbps 01:51:32.977 22262 bytes 369886 bytes 01:51:57.460
24 1:54:37.370 0:04:32.605 3114 kbps 9968 kbps 01:56:04.999 8007 kbps 01:56:04.040 7489 kbps 01:55:59.118 16235 bytes 360939 bytes 01:55:45.229
25 1:59:09.976 0:00:01.334 26 kbps 30 kbps 01:59:10.101 0 kbps 00:00:00.000 0 kbps 00:00:00.000 151 bytes 673 bytes 01:59:10.810

STREAM DIAGNOSTICS:

File PID Type Codec Language Seconds Bitrate Bytes Packets
---- --- ---- ----- -------- -------------- -------------- ------------- -----
00001.M2TS 4113 (0x1011) 0x1B AVC 7151,269 3898 3484429999 19038878
00001.M2TS 4352 (0x1100) 0x81 AC3 jpn (Japanese) 7151,269 192 171631872 1117395
00001.M2TS 4608 (0x1200) 0x90 PGS rus (Russian) 7151,269 34 30363579 173938
00001.M2TS 6912 (0x1B00) 0x1B AVC 7151,269 2169 1939093801 10640230
<pre>
<---- END FORUMS PASTE ---->

QUICK SUMMARY:

Disc Title: 1994 PompokoDisc Size: 44 610 864 106 bytesProtection: AACSBD-Java: NoPlaylist: 00001.MPLSSize: 5 992 319 040 bytesLength: 1:59:11.310Total Bitrate: 6,70 MbpsVideo: MPEG-4 AVC Video / 3898 kbps / 1080p / 23,976 fps / 16:9 / High Profile 4.1Video: MPEG-4 AVC Video / 2169 kbps / 480p / 23,976 fps / 16:9 / High Profile 3.2Audio: Japanese / Dolby Digital Audio / 2.0 / 48 kHz / 192 kbps / Dolby SurroundSubtitle: Russian / 33,967 kbps

********************PLAYLIST: 00003.MPLS********************

<--- BEGIN FORUMS PASTE --->
</pre>
Total Video
Title Codec Length Movie Size Disc Size Bitrate Bitrate Main Audio Track Secondary Audio Track
----- ------ ------- -------------- -------------- ------- ------- ------------------ ---------------------
00003.MPLS AVC 0:14:32 1326382656 44610864106 12,16 11,29 DD AC3 2.0 192Kbps
DISC INFO:

Disc Title: 1994 Pompoko
Disc Size: 44610864106 bytes
Protection: AACS
BD-Java: No
BDInfo: 0.5.8

PLAYLIST REPORT:

Name: 00003.MPLS
Length: 0:14:32.905 (h:m:s.ms)
Size: 1326382656 bytes
Total Bitrate: 12,16 Mbps

VIDEO:

Codec Bitrate Description
----- ------- -----------
MPEG-4 AVC Video 11291 kbps 1080i / 29,970 fps / 16:9 / High Profile 4.1

AUDIO:

Codec Language Bitrate Description
----- -------- ------- -----------
Dolby Digital Audio Japanese 192 kbps 2.0 / 48 kHz / 192 kbps

SUBTITLES:

Codec Language Bitrate Description
----- -------- ------- -----------
Presentation Graphics Russian 50,570 kbps

FILES:

Name Time In Length Size Total Bitrate
---- ------- ------ ---- -------------
00007.M2TS 0:00:00.000 0:14:32.905 1326382656 12156

CHAPTERS:

Number Time In Length Avg Video Rate Max 1-Sec Rate Max 1-Sec Time Max 5-Sec Rate Max 5-Sec Time Max 10Sec Rate Max 10Sec Time Avg Frame Size Max Frame Size Max Frame Time
------ ------- ------ -------------- -------------- -------------- -------------- -------------- -------------- -------------- -------------- -------------- --------------
1 0:00:00.000 0:04:58.831 11103 kbps 14188 kbps 00:00:14.647 13003 kbps 00:00:10.610 12596 kbps 00:00:06.573 46302 bytes 243436 bytes 00:01:54.280
2 0:04:58.831 0:05:02.335 11383 kbps 15576 kbps 00:07:58.945 13596 kbps 00:07:57.043 13193 kbps 00:07:52.939 47476 bytes 243553 bytes 00:07:31.617
3 0:10:01.167 0:04:28.868 11507 kbps 17054 kbps 00:14:26.232 13867 kbps 00:14:24.296 12850 kbps 00:10:16.749 47994 bytes 263128 bytes 00:14:27.166
4 0:14:30.035 0:00:02.869 1029 kbps 2788 kbps 00:14:30.035 0 kbps 00:00:00.000 0 kbps 00:00:00.000 4395 bytes 44851 bytes 00:14:30.636

STREAM DIAGNOSTICS:

File PID Type Codec Language Seconds Bitrate Bytes Packets
---- --- ---- ----- -------- -------------- -------------- ------------- -----
00007.M2TS 4113 (0x1011) 0x1B AVC 872,839 11292 1232011454 6711243
00007.M2TS 4352 (0x1100) 0x81 AC3 jpn (Japanese) 872,839 192 20949504 136390
00007.M2TS 4608 (0x1200) 0x90 PGS rus (Russian) 872,839 51 5518091 31352
<pre>
<---- END FORUMS PASTE ---->

QUICK SUMMARY:

Disc Title: 1994 PompokoDisc Size: 44 610 864 106 bytesProtection: AACSBD-Java: NoPlaylist: 00003.MPLSSize: 1 326 382 656 bytesLength: 0:14:32.905Total Bitrate: 12,16 MbpsVideo: MPEG-4 AVC Video / 11291 kbps / 1080i / 29,970 fps / 16:9 / High Profile 4.1Audio: Japanese / Dolby Digital Audio / 2.0 / 48 kHz / 192 kbpsSubtitle: Russian / 50,570 kbps

********************PLAYLIST: 00004.MPLS********************

<--- BEGIN FORUMS PASTE --->
</pre>
Total Video
Title Codec Length Movie Size Disc Size Bitrate Bitrate Main Audio Track Secondary Audio Track
----- ------ ------- -------------- -------------- ------- ------- ------------------ ---------------------
00004.MPLS AVC 0:07:47 1236148224 44610864106 21,15 19,51 DD AC3 2.0 640Kbps
DISC INFO:

Disc Title: 1994 Pompoko
Disc Size: 44610864106 bytes
Protection: AACS
BD-Java: No
BDInfo: 0.5.8

PLAYLIST REPORT:

Name: 00004.MPLS
Length: 0:07:47.508 (h:m:s.ms)
Size: 1236148224 bytes
Total Bitrate: 21,15 Mbps

VIDEO:

Codec Bitrate Description
----- ------- -----------
MPEG-4 AVC Video 19511 kbps 1080p / 23,976 fps / 16:9 / High Profile 4.1

AUDIO:

Codec Language Bitrate Description
----- -------- ------- -----------
Dolby Digital Audio Japanese 640 kbps 2.0 / 48 kHz / 640 kbps

FILES:

Name Time In Length Size Total Bitrate
---- ------- ------ ---- -------------
00008.M2TS 0:00:00.000 0:07:47.508 1236148224 21153

CHAPTERS:

Number Time In Length Avg Video Rate Max 1-Sec Rate Max 1-Sec Time Max 5-Sec Rate Max 5-Sec Time Max 10Sec Rate Max 10Sec Time Avg Frame Size Max Frame Size Max Frame Time
------ ------- ------ -------------- -------------- -------------- -------------- -------------- -------------- -------------- -------------- -------------- --------------
1 0:00:00.000 0:00:05.004 1402 kbps 4858 kbps 00:00:04.003 0 kbps 00:00:00.000 0 kbps 00:00:00.000 7248 bytes 581884 bytes 00:00:05.004
2 0:00:05.004 0:00:32.032 15376 kbps 47227 kbps 00:00:32.407 25746 kbps 00:00:29.988 23393 kbps 00:00:24.899 80161 bytes 848930 bytes 00:00:33.366
3 0:00:37.037 0:00:04.004 1734 kbps 5243 kbps 00:00:40.040 0 kbps 00:00:00.000 0 kbps 00:00:00.000 9038 bytes 630077 bytes 00:00:41.041
4 0:00:41.041 0:01:03.062 23392 kbps 48695 kbps 00:01:31.758 35752 kbps 00:01:29.339 33313 kbps 00:01:23.083 121957 bytes 964521 bytes 00:01:26.503
5 0:01:44.104 0:00:04.003 1701 kbps 5476 kbps 00:01:47.106 0 kbps 00:00:00.000 0 kbps 00:00:00.000 8867 bytes 659129 bytes 00:01:48.107
6 0:01:48.107 0:02:29.149 21791 kbps 56957 kbps 00:04:11.751 33925 kbps 00:04:02.075 31442 kbps 00:04:02.617 113610 bytes 699419 bytes 00:02:19.389
7 0:04:17.256 0:00:04.004 380 kbps 641 kbps 00:04:18.841 0 kbps 00:00:00.000 0 kbps 00:00:00.000 1980 bytes 27829 bytes 00:04:18.174
8 0:04:21.260 0:03:25.246 18911 kbps 56075 kbps 00:04:21.511 37149 kbps 00:07:16.018 29157 kbps 00:06:07.909 98593 bytes 599726 bytes 00:04:21.803
9 0:07:46.507 0:00:01.000 208 kbps 0 kbps 00:00:00.000 0 kbps 00:00:00.000 0 kbps 00:00:00.000 1131 bytes 1477 bytes 00:07:46.674

STREAM DIAGNOSTICS:

File PID Type Codec Language Seconds Bitrate Bytes Packets
---- --- ---- ----- -------- -------------- -------------- ------------- -----
00008.M2TS 4113 (0x1011) 0x1B AVC 467,384 19517 1140222902 6203418
00008.M2TS 4352 (0x1100) 0x81 AC3 jpn (Japanese) 467,384 640 37404160 219165
<pre>
<---- END FORUMS PASTE ---->

QUICK SUMMARY:

Disc Title: 1994 PompokoDisc Size: 44 610 864 106 bytesProtection: AACSBD-Java: NoPlaylist: 00004.MPLSSize: 1 236 148 224 bytesLength: 0:07:47.508Total Bitrate: 21,15 MbpsVideo: MPEG-4 AVC Video / 19511 kbps / 1080p / 23,976 fps / 16:9 / High Profile 4.1Audio: Japanese / Dolby Digital Audio / 2.0 / 48 kHz / 640 kbps

********************PLAYLIST: 00008.MPLS********************

<--- BEGIN FORUMS PASTE --->
</pre>
Total Video
Title Codec Length Movie Size Disc Size Bitrate Bitrate Main Audio Track Secondary Audio Track
----- ------ ------- -------------- -------------- ------- ------- ------------------ ---------------------
00008.MPLS AVC 0:03:30 527439360 44610864106 20,07 18,47 DD AC3 2.0 640Kbps
DISC INFO:

Disc Title: 1994 Pompoko
Disc Size: 44610864106 bytes
Protection: AACS
BD-Java: No
BDInfo: 0.5.8

PLAYLIST REPORT:

Name: 00008.MPLS
Length: 0:03:30.251 (h:m:s.ms)
Size: 527439360 bytes
Total Bitrate: 20,07 Mbps

VIDEO:

Codec Bitrate Description
----- ------- -----------
MPEG-4 AVC Video 18470 kbps 1080p / 23,976 fps / 16:9 / High Profile 4.1

AUDIO:

Codec Language Bitrate Description
----- -------- ------- -----------
Dolby Digital Audio Japanese 640 kbps 2.0 / 48 kHz / 640 kbps

FILES:

Name Time In Length Size Total Bitrate
---- ------- ------ ---- -------------
00008.M2TS 0:00:00.000 0:03:30.251 527439360 20069

CHAPTERS:

Number Time In Length Avg Video Rate Max 1-Sec Rate Max 1-Sec Time Max 5-Sec Rate Max 5-Sec Time Max 10Sec Rate Max 10Sec Time Avg Frame Size Max Frame Size Max Frame Time
------ ------- ------ -------------- -------------- -------------- -------------- -------------- -------------- -------------- -------------- -------------- --------------
1 0:00:00.000 0:00:04.004 435 kbps 641 kbps 00:00:01.584 0 kbps 00:00:00.000 0 kbps 00:00:00.000 2246 bytes 27829 bytes 00:00:00.917
2 0:00:04.004 0:03:25.246 18911 kbps 56075 kbps 00:00:04.254 37149 kbps 00:02:58.761 29157 kbps 00:01:50.652 98593 bytes 599726 bytes 00:00:04.546
3 0:03:29.250 0:00:01.000 208 kbps 0 kbps 00:00:00.000 0 kbps 00:00:00.000 0 kbps 00:00:00.000 1131 bytes 1477 bytes 00:03:29.417

STREAM DIAGNOSTICS:

File PID Type Codec Language Seconds Bitrate Bytes Packets
---- --- ---- ----- -------- -------------- -------------- ------------- -----
00008.M2TS 4113 (0x1011) 0x1B AVC 467,384 19517 1140222902 6203418
00008.M2TS 4352 (0x1100) 0x81 AC3 jpn (Japanese) 467,384 640 37404160 219165
<pre>
<---- END FORUMS PASTE ---->

QUICK SUMMARY:

Disc Title: 1994 PompokoDisc Size: 44 610 864 106 bytesProtection: AACSBD-Java: NoPlaylist: 00008.MPLSSize: 527 439 360 bytesLength: 0:03:30.251Total Bitrate: 20,07 MbpsVideo: MPEG-4 AVC Video / 18470 kbps / 1080p / 23,976 fps / 16:9 / High Profile 4.1Audio: Japanese / Dolby Digital Audio / 2.0 / 48 kHz / 640 kbps

********************PLAYLIST: 00007.MPLS********************

<--- BEGIN FORUMS PASTE --->
</pre>
Total Video
Title Codec Length Movie Size Disc Size Bitrate Bitrate Main Audio Track Secondary Audio Track
----- ------ ------- -------------- -------------- ------- ------- ------------------ ---------------------
00007.MPLS AVC 0:02:32 439899264 44610864106 23,13 21,40 DD AC3 2.0 640Kbps
DISC INFO:

Disc Title: 1994 Pompoko
Disc Size: 44610864106 bytes
Protection: AACS
BD-Java: No
BDInfo: 0.5.8

PLAYLIST REPORT:

Name: 00007.MPLS
Length: 0:02:32.151 (h:m:s.ms)
Size: 439899264 bytes
Total Bitrate: 23,13 Mbps

VIDEO:

Codec Bitrate Description
----- ------- -----------
MPEG-4 AVC Video 21400 kbps 1080p / 23,976 fps / 16:9 / High Profile 4.1

AUDIO:

Codec Language Bitrate Description
----- -------- ------- -----------
Dolby Digital Audio Japanese 640 kbps 2.0 / 48 kHz / 640 kbps

FILES:

Name Time In Length Size Total Bitrate
---- ------- ------ ---- -------------
00008.M2TS 0:00:00.000 0:02:32.151 439899264 23123

CHAPTERS:

Number Time In Length Avg Video Rate Max 1-Sec Rate Max 1-Sec Time Max 5-Sec Rate Max 5-Sec Time Max 10Sec Rate Max 10Sec Time Avg Frame Size Max Frame Size Max Frame Time
------ ------- ------ -------------- -------------- -------------- -------------- -------------- -------------- -------------- -------------- -------------- --------------
1 0:00:00.000 0:00:04.003 1759 kbps 5476 kbps 00:00:03.002 0 kbps 00:00:00.000 0 kbps 00:00:00.000 9076 bytes 659129 bytes 00:00:04.003
2 0:00:04.003 0:02:28.148 21937 kbps 56957 kbps 00:02:27.647 33925 kbps 00:02:17.971 31442 kbps 00:02:18.513 114367 bytes 699419 bytes 00:00:35.285

STREAM DIAGNOSTICS:

File PID Type Codec Language Seconds Bitrate Bytes Packets
---- --- ---- ----- -------- -------------- -------------- ------------- -----
00008.M2TS 4113 (0x1011) 0x1B AVC 467,384 19517 1140222902 6203418
00008.M2TS 4352 (0x1100) 0x81 AC3 jpn (Japanese) 467,384 640 37404160 219165
<pre>
<---- END FORUMS PASTE ---->

QUICK SUMMARY:

Disc Title: 1994 PompokoDisc Size: 44 610 864 106 bytesProtection: AACSBD-Java: NoPlaylist: 00007.MPLSSize: 439 899 264 bytesLength: 0:02:32.151Total Bitrate: 23,13 MbpsVideo: MPEG-4 AVC Video / 21400 kbps / 1080p / 23,976 fps / 16:9 / High Profile 4.1Audio: Japanese / Dolby Digital Audio / 2.0 / 48 kHz / 640 kbps

********************PLAYLIST: 00006.MPLS********************

<--- BEGIN FORUMS PASTE --->
</pre>
Total Video
Title Codec Length Movie Size Disc Size Bitrate Bitrate Main Audio Track Secondary Audio Track
----- ------ ------- -------------- -------------- ------- ------- ------------------ ---------------------
00006.MPLS AVC 0:01:07 200017536 44610864106 23,86 22,09 DD AC3 2.0 640Kbps
DISC INFO:

Disc Title: 1994 Pompoko
Disc Size: 44610864106 bytes
Protection: AACS
BD-Java: No
BDInfo: 0.5.8

PLAYLIST REPORT:

Name: 00006.MPLS
Length: 0:01:07.067 (h:m:s.ms)
Size: 200017536 bytes
Total Bitrate: 23,86 Mbps

VIDEO:

Codec Bitrate Description
----- ------- -----------
MPEG-4 AVC Video 22091 kbps 1080p / 23,976 fps / 16:9 / High Profile 4.1

AUDIO:

Codec Language Bitrate Description
----- -------- ------- -----------
Dolby Digital Audio Japanese 640 kbps 2.0 / 48 kHz / 640 kbps

FILES:

Name Time In Length Size Total Bitrate
---- ------- ------ ---- -------------
00008.M2TS 0:00:00.000 0:01:07.067 200017536 23844

CHAPTERS:

Number Time In Length Avg Video Rate Max 1-Sec Rate Max 1-Sec Time Max 5-Sec Rate Max 5-Sec Time Max 10Sec Rate Max 10Sec Time Avg Frame Size Max Frame Size Max Frame Time
------ ------- ------ -------------- -------------- -------------- -------------- -------------- -------------- -------------- -------------- -------------- --------------
1 0:00:00.000 0:00:04.004 1821 kbps 5243 kbps 00:00:03.003 0 kbps 00:00:00.000 0 kbps 00:00:00.000 9396 bytes 630077 bytes 00:00:04.004
2 0:00:04.004 0:01:03.062 23392 kbps 48695 kbps 00:00:54.721 35752 kbps 00:00:52.302 33313 kbps 00:00:46.045 121957 bytes 964521 bytes 00:00:49.466

STREAM DIAGNOSTICS:

File PID Type Codec Language Seconds Bitrate Bytes Packets
---- --- ---- ----- -------- -------------- -------------- ------------- -----
00008.M2TS 4113 (0x1011) 0x1B AVC 467,384 19517 1140222902 6203418
00008.M2TS 4352 (0x1100) 0x81 AC3 jpn (Japanese) 467,384 640 37404160 219165
<pre>
<---- END FORUMS PASTE ---->

QUICK SUMMARY:

Disc Title: 1994 PompokoDisc Size: 44 610 864 106 bytesProtection: AACSBD-Java: NoPlaylist: 00006.MPLSSize: 200 017 536 bytesLength: 0:01:07.067Total Bitrate: 23,86 MbpsVideo: MPEG-4 AVC Video / 22091 kbps / 1080p / 23,976 fps / 16:9 / High Profile 4.1Audio: Japanese / Dolby Digital Audio / 2.0 / 48 kHz / 640 kbps

********************PLAYLIST: 00005.MPLS********************

<--- BEGIN FORUMS PASTE --->
</pre>
Total Video
Title Codec Length Movie Size Disc Size Bitrate Bitrate Main Audio Track Secondary Audio Track
----- ------ ------- -------------- -------------- ------- ------- ------------------ ---------------------
00005.MPLS AVC 0:00:37 68772672 44610864106 14,85 13,47 DD AC3 2.0 640Kbps
DISC INFO:

Disc Title: 1994 Pompoko
Disc Size: 44610864106 bytes
Protection: AACS
BD-Java: No
BDInfo: 0.5.8

PLAYLIST REPORT:

Name: 00005.MPLS
Length: 0:00:37.037 (h:m:s.ms)
Size: 68772672 bytes
Total Bitrate: 14,85 Mbps

VIDEO:

Codec Bitrate Description
----- ------- -----------
MPEG-4 AVC Video 13472 kbps 1080p / 23,976 fps / 16:9 / High Profile 4.1

AUDIO:

Codec Language Bitrate Description
----- -------- ------- -----------
Dolby Digital Audio Japanese 640 kbps 2.0 / 48 kHz / 640 kbps

FILES:

Name Time In Length Size Total Bitrate
---- ------- ------ ---- -------------
00008.M2TS 0:00:00.000 0:00:37.037 68772672 14838

CHAPTERS:

Number Time In Length Avg Video Rate Max 1-Sec Rate Max 1-Sec Time Max 5-Sec Rate Max 5-Sec Time Max 10Sec Rate Max 10Sec Time Avg Frame Size Max Frame Size Max Frame Time
------ ------- ------ -------------- -------------- -------------- -------------- -------------- -------------- -------------- -------------- -------------- --------------
1 0:00:00.000 0:00:05.004 1402 kbps 4858 kbps 00:00:04.003 0 kbps 00:00:00.000 0 kbps 00:00:00.000 7248 bytes 581884 bytes 00:00:05.004
2 0:00:05.004 0:00:32.032 15376 kbps 47227 kbps 00:00:32.407 25746 kbps 00:00:29.988 23393 kbps 00:00:24.899 80161 bytes 848930 bytes 00:00:33.366

STREAM DIAGNOSTICS:

File PID Type Codec Language Seconds Bitrate Bytes Packets
---- --- ---- ----- -------- -------------- -------------- ------------- -----
00008.M2TS 4113 (0x1011) 0x1B AVC 467,384 19517 1140222902 6203418
00008.M2TS 4352 (0x1100) 0x81 AC3 jpn (Japanese) 467,384 640 37404160 219165
<pre>
<---- END FORUMS PASTE ---->

QUICK SUMMARY:

Disc Title: 1994 PompokoDisc Size: 44 610 864 106 bytesProtection: AACSBD-Java: NoPlaylist: 00005.MPLSSize: 68 772 672 bytesLength: 0:00:37.037Total Bitrate: 14,85 MbpsVideo: MPEG-4 AVC Video / 13472 kbps / 1080p / 23,976 fps / 16:9 / High Profile 4.1Audio: Japanese / Dolby Digital Audio / 2.0 / 48 kHz / 640 kbps

********************PLAYLIST: 00009.MPLS********************

<--- BEGIN FORUMS PASTE --->
</pre>
Total Video
Title Codec Length Movie Size Disc Size Bitrate Bitrate Main Audio Track Secondary Audio Track
----- ------ ------- -------------- -------------- ------- ------- ------------------ ---------------------
00009.MPLS AVC 0:06:56 653398080 44610864106 12,56 11,73 DD AC3 2.0 192Kbps
DISC INFO:

Disc Title: 1994 Pompoko
Disc Size: 44610864106 bytes
Protection: AACS
BD-Java: No
BDInfo: 0.5.8

PLAYLIST REPORT:

Name: 00009.MPLS
Length: 0:06:56.215 (h:m:s.ms)
Size: 653398080 bytes
Total Bitrate: 12,56 Mbps

VIDEO:

Codec Bitrate Description
----- ------- -----------
MPEG-4 AVC Video 11730 kbps 1080i / 29,970 fps / 16:9 / High Profile 4.1

AUDIO:

Codec Language Bitrate Description
----- -------- ------- -----------
Dolby Digital Audio Japanese 192 kbps 2.0 / 48 kHz / 192 kbps

FILES:

Name Time In Length Size Total Bitrate
---- ------- ------ ---- -------------
00009.M2TS 0:00:00.000 0:06:56.215 653398080 12558

CHAPTERS:

Number Time In Length Avg Video Rate Max 1-Sec Rate Max 1-Sec Time Max 5-Sec Rate Max 5-Sec Time Max 10Sec Rate Max 10Sec Time Avg Frame Size Max Frame Size Max Frame Time
------ ------- ------ -------------- -------------- -------------- -------------- -------------- -------------- -------------- -------------- -------------- --------------
1 0:00:00.000 0:02:00.954 16387 kbps 38925 kbps 00:01:22.148 31854 kbps 00:01:00.060 26423 kbps 00:00:59.259 68328 bytes 693490 bytes 00:00:58.291
2 0:02:00.954 0:02:00.153 8457 kbps 17263 kbps 00:03:11.024 12154 kbps 00:03:10.056 11057 kbps 00:03:09.622 35272 bytes 415243 bytes 00:03:23.202
3 0:04:01.107 0:00:04.938 2427 kbps 5137 kbps 00:04:03.009 0 kbps 00:00:00.000 0 kbps 00:00:00.000 10123 bytes 320183 bytes 00:04:03.042
4 0:04:06.045 0:01:11.504 13432 kbps 34324 kbps 00:04:58.097 29246 kbps 00:04:40.546 21748 kbps 00:04:40.647 56023 bytes 726032 bytes 00:04:09.215
5 0:05:17.550 0:01:36.830 9417 kbps 42542 kbps 00:06:35.395 27108 kbps 00:06:35.094 19223 kbps 00:06:33.459 39275 bytes 734230 bytes 00:05:31.030
6 0:06:54.380 0:00:01.835 33 kbps 37 kbps 00:06:54.580 0 kbps 00:00:00.000 0 kbps 00:00:00.000 145 bytes 675 bytes 00:06:55.181

STREAM DIAGNOSTICS:

File PID Type Codec Language Seconds Bitrate Bytes Packets
---- --- ---- ----- -------- -------------- -------------- ------------- -----
00009.M2TS 4113 (0x1011) 0x1B AVC 416,116 11735 610372374 3324453
00009.M2TS 4352 (0x1100) 0x81 AC3 jpn (Japanese) 416,116 192 9990912 65045
<pre>
<---- END FORUMS PASTE ---->

QUICK SUMMARY:

Disc Title: 1994 PompokoDisc Size: 44 610 864 106 bytesProtection: AACSBD-Java: NoPlaylist: 00009.MPLSSize: 653 398 080 bytesLength: 0:06:56.215Total Bitrate: 12,56 MbpsVideo: MPEG-4 AVC Video / 11730 kbps / 1080i / 29,970 fps / 16:9 / High Profile 4.1Audio: Japanese / Dolby Digital Audio / 2.0 / 48 kHz / 192 kbps

********************PLAYLIST: 00011.MPLS********************

<--- BEGIN FORUMS PASTE --->
</pre>
Total Video
Title Codec Length Movie Size Disc Size Bitrate Bitrate Main Audio Track Secondary Audio Track
----- ------ ------- -------------- -------------- ------- ------- ------------------ ---------------------
00011.MPLS MPEG-2 0:02:37 48734208 44610864106 2,48 1,19
DISC INFO:

Disc Title: 1994 Pompoko
Disc Size: 44610864106 bytes
Protection: AACS
BD-Java: No
BDInfo: 0.5.8

PLAYLIST REPORT:

Name: 00011.MPLS
Length: 0:02:37.157 (h:m:s.ms)
Size: 48734208 bytes
Total Bitrate: 2,48 Mbps

VIDEO:

Codec Bitrate Description
----- ------- -----------
MPEG-2 Video 1189 kbps 1080p / 23,976 fps / 16:9

FILES:

Name Time In Length Size Total Bitrate
---- ------- ------ ---- -------------
00012.M2TS 0:00:00.000 0:00:01.000 333888 1363
00012.M2TS 0:00:01.000 0:00:01.000 337920 1379
00012.M2TS 0:00:02.001 0:00:01.001 107904 440
00012.M2TS 0:00:03.003 0:00:01.000 188160 768
00012.M2TS 0:00:04.004 0:00:01.000 148224 605
00012.M2TS 0:00:05.004 0:00:01.000 139584 570
00012.M2TS 0:00:06.005 0:00:01.000 107136 437
00012.M2TS 0:00:07.006 0:00:01.001 144384 589
00012.M2TS 0:00:08.008 0:00:01.000 329472 1345
00012.M2TS 0:00:09.009 0:00:01.000 329856 1346
00012.M2TS 0:00:10.009 0:00:01.000 258432 1055
00012.M2TS 0:00:11.010 0:00:01.000 284928 1163
00012.M2TS 0:00:12.011 0:00:01.001 274560 1120
00012.M2TS 0:00:13.013 0:00:01.000 311424 1271
00012.M2TS 0:00:14.014 0:00:01.000 386688 1578
00012.M2TS 0:00:15.014 0:00:01.000 350208 1429
00012.M2TS 0:00:16.015 0:00:01.001 310464 1267
00012.M2TS 0:00:17.017 0:00:01.000 301632 1231
00012.M2TS 0:00:18.018 0:00:01.000 293568 1198
00012.M2TS 0:00:19.019 0:00:01.000 365952 1493
00012.M2TS 0:00:20.019 0:00:01.000 336768 1374
00012.M2TS 0:00:21.020 0:00:01.001 299712 1223
00012.M2TS 0:00:22.022 0:00:01.000 278592 1137
00012.M2TS 0:00:23.023 0:00:01.000 305472 1247
00012.M2TS 0:00:24.024 0:00:01.000 368064 1502
00012.M2TS 0:00:25.024 0:00:01.000 340416 1389
00012.M2TS 0:00:26.025 0:00:01.001 326400 1332
00012.M2TS 0:00:27.027 0:00:01.000 369600 1508
00012.M2TS 0:00:28.028 0:00:01.000 283392 1157
00012.M2TS 0:00:29.028 0:00:01.000 249792 1019
00012.M2TS 0:00:30.029 0:00:01.000 336192 1372
00012.M2TS 0:00:31.030 0:00:01.001 317568 1296
00012.M2TS 0:00:32.032 0:00:01.000 241152 984
00012.M2TS 0:00:33.033 0:00:01.000 171648 701
00012.M2TS 0:00:34.033 0:00:01.000 335808 1370
00012.M2TS 0:00:35.034 0:00:01.000 356736 1456
00012.M2TS 0:00:36.035 0:00:01.001 326784 1334
00012.M2TS 0:00:37.037 0:00:01.000 249984 1020
00012.M2TS 0:00:38.038 0:00:01.000 244608 998
00012.M2TS 0:00:39.038 0:00:01.000 236928 967
00012.M2TS 0:00:40.039 0:00:01.001 389760 1591
00012.M2TS 0:00:41.041 0:00:01.000 286272 1168
00012.M2TS 0:00:42.042 0:00:01.000 273408 1116
00012.M2TS 0:00:43.043 0:00:01.000 343104 1400
00012.M2TS 0:00:44.043 0:00:01.000 371520 1516
00012.M2TS 0:00:45.044 0:00:01.001 329472 1345
00012.M2TS 0:00:46.046 0:00:01.000 356928 1457
00012.M2TS 0:00:47.047 0:00:01.000 342528 1398
00012.M2TS 0:00:48.048 0:00:01.000 354624 1447
00012.M2TS 0:00:49.048 0:00:01.000 287808 1175
00012.M2TS 0:00:50.049 0:00:01.001 278208 1135
00012.M2TS 0:00:51.051 0:00:01.000 271296 1107
00012.M2TS 0:00:52.052 0:00:01.000 303936 1240
00012.M2TS 0:00:53.053 0:00:01.000 366912 1497
00012.M2TS 0:00:54.053 0:00:01.000 356160 1454
00012.M2TS 0:00:55.054 0:00:01.001 352896 1440
00012.M2TS 0:00:56.056 0:00:01.000 306240 1250
00012.M2TS 0:00:57.057 0:00:01.000 195840 799
00012.M2TS 0:00:58.057 0:00:01.000 187008 763
00012.M2TS 0:00:59.058 0:00:01.000 326208 1331
00012.M2TS 0:01:00.059 0:00:01.001 330816 1350
00012.M2TS 0:01:01.061 0:00:01.000 347520 1418
00012.M2TS 0:01:02.062 0:00:01.000 312768 1276
00012.M2TS 0:01:03.062 0:00:01.000 337920 1379
00012.M2TS 0:01:04.063 0:00:01.001 291840 1191
00012.M2TS 0:01:05.065 0:00:01.000 292416 1193
00012.M2TS 0:01:06.066 0:00:01.000 350976 1432
00012.M2TS 0:01:07.067 0:00:01.000 362496 1479
00012.M2TS 0:01:08.067 0:00:01.000 415296 1695
00012.M2TS 0:01:09.068 0:00:01.001 266304 1087
00012.M2TS 0:01:10.070 0:00:01.000 326400 1332
00012.M2TS 0:01:11.071 0:00:01.000 385728 1574
00012.M2TS 0:01:12.072 0:00:01.000 393408 1606
00012.M2TS 0:01:13.072 0:00:01.000 373440 1524
00012.M2TS 0:01:14.073 0:00:01.001 342720 1399
00012.M2TS 0:01:15.075 0:00:01.000 352896 1440
00012.M2TS 0:01:16.076 0:00:01.000 312768 1276
00012.M2TS 0:01:17.077 0:00:01.000 297216 1213
00012.M2TS 0:01:18.077 0:00:01.000 320832 1309
00012.M2TS 0:01:19.078 0:00:01.001 361536 1475
00012.M2TS 0:01:20.080 0:00:01.000 343296 1401
00012.M2TS 0:01:21.081 0:00:01.000 199680 815
00012.M2TS 0:01:22.081 0:00:01.000 187392 765
00012.M2TS 0:01:23.082 0:00:01.000 370176 1511
00012.M2TS 0:01:24.083 0:00:01.001 263808 1077
00012.M2TS 0:01:25.085 0:00:01.000 342912 1399
00012.M2TS 0:01:26.086 0:00:01.000 376320 1536
00012.M2TS 0:01:27.086 0:00:01.000 380544 1553
00012.M2TS 0:01:28.087 0:00:01.001 350400 1430
00012.M2TS 0:01:29.089 0:00:01.000 295680 1207
00012.M2TS 0:01:30.090 0:00:01.000 267456 1091
00012.M2TS 0:01:31.091 0:00:01.000 273984 1118
00012.M2TS 0:01:32.091 0:00:01.000 333120 1359
00012.M2TS 0:01:33.092 0:00:01.001 392256 1601
00012.M2TS 0:01:34.094 0:00:01.000 326784 1334
00012.M2TS 0:01:35.095 0:00:01.000 290880 1187
00012.M2TS 0:01:36.096 0:00:01.000 270144 1102
00012.M2TS 0:01:37.096 0:00:01.000 298944 1220
00012.M2TS 0:01:38.097 0:00:01.001 374784 1530
00012.M2TS 0:01:39.099 0:00:01.000 142464 581
00012.M2TS 0:01:40.100 0:00:01.000 198912 812
00012.M2TS 0:01:41.101 0:00:01.000 274176 1119
00012.M2TS 0:01:42.101 0:00:01.000 250368 1022
00012.M2TS 0:01:43.102 0:00:01.001 261120 1066
00012.M2TS 0:01:44.104 0:00:01.000 302208 1233
00012.M2TS 0:01:45.105 0:00:01.000 353088 1441
00012.M2TS 0:01:46.106 0:00:01.000 262656 1072
00012.M2TS 0:01:47.106 0:00:01.000 262848 1073
00012.M2TS 0:01:48.107 0:00:01.001 278784 1138
00012.M2TS 0:01:49.109 0:00:01.000 324480 1324
00012.M2TS 0:01:50.110 0:00:01.000 228480 932
00012.M2TS 0:01:51.111 0:00:01.000 384768 1570
00012.M2TS 0:01:52.111 0:00:01.001 367296 1499
00012.M2TS 0:01:53.113 0:00:01.000 376896 1538
00012.M2TS 0:01:54.114 0:00:01.000 362496 1479
00012.M2TS 0:01:55.115 0:00:01.000 329280 1344
00012.M2TS 0:01:56.115 0:00:01.000 385152 1572
00012.M2TS 0:01:57.116 0:00:01.001 350016 1428
00012.M2TS 0:01:58.118 0:00:01.000 412992 1685
00012.M2TS 0:01:59.119 0:00:01.000 377664 1541
00012.M2TS 0:02:00.120 0:00:01.000 375936 1534
00012.M2TS 0:02:01.120 0:00:01.000 378048 1543
00012.M2TS 0:02:02.121 0:00:01.001 397056 1620
00012.M2TS 0:02:03.123 0:00:01.000 360576 1472
00012.M2TS 0:02:04.124 0:00:01.000 356736 1456
00012.M2TS 0:02:05.125 0:00:01.000 361536 1475
00012.M2TS 0:02:06.125 0:00:01.000 368448 1504
00012.M2TS 0:02:07.126 0:00:01.001 332736 1358
00012.M2TS 0:02:08.128 0:00:01.000 307008 1253
00012.M2TS 0:02:09.129 0:00:01.000 305472 1247
00012.M2TS 0:02:10.130 0:00:01.000 339072 1384
00012.M2TS 0:02:11.130 0:00:01.000 310464 1267
00012.M2TS 0:02:12.131 0:00:01.001 295488 1206
00012.M2TS 0:02:13.133 0:00:01.000 294336 1201
00012.M2TS 0:02:14.134 0:00:01.000 254016 1037
00012.M2TS 0:02:15.135 0:00:01.000 248640 1015
00012.M2TS 0:02:16.135 0:00:01.000 206976 845
00012.M2TS 0:02:17.136 0:00:01.001 379200 1548
00012.M2TS 0:02:18.138 0:00:01.000 337728 1378
00012.M2TS 0:02:19.139 0:00:01.000 296832 1211
00012.M2TS 0:02:20.139 0:00:01.000 288192 1176
00012.M2TS 0:02:21.140 0:00:01.001 281856 1150
00012.M2TS 0:02:22.142 0:00:01.000 367872 1501
00012.M2TS 0:02:23.143 0:00:01.000 302784 1236
00012.M2TS 0:02:24.144 0:00:01.000 301632 1231
00012.M2TS 0:02:25.144 0:00:01.000 396288 1617
00012.M2TS 0:02:26.145 0:00:01.001 367488 1500
00012.M2TS 0:02:27.147 0:00:01.000 260544 1063
00012.M2TS 0:02:28.148 0:00:01.000 267072 1090
00012.M2TS 0:02:29.149 0:00:01.000 289344 1181
00012.M2TS 0:02:30.149 0:00:01.000 395904 1616
00012.M2TS 0:02:31.150 0:00:01.001 314304 1283
00012.M2TS 0:02:32.152 0:00:01.000 342912 1399
00012.M2TS 0:02:33.153 0:00:01.000 273216 1115
00012.M2TS 0:02:34.154 0:00:01.000 266496 1088
00012.M2TS 0:02:35.154 0:00:01.000 300096 1225
00012.M2TS 0:02:36.155 0:00:01.001 451776 1926

CHAPTERS:

Number Time In Length Avg Video Rate Max 1-Sec Rate Max 1-Sec Time Max 5-Sec Rate Max 5-Sec Time Max 10Sec Rate Max 10Sec Time Avg Frame Size Max Frame Size Max Frame Time
------ ------- ------ -------------- -------------- -------------- -------------- -------------- -------------- -------------- -------------- -------------- --------------
1 0:00:00.000 0:00:01.000 5039 kbps 2537 kbps 00:00:00.959 0 kbps 00:00:00.000 0 kbps 00:00:00.000 315235 bytes 317413 bytes 00:00:01.960
2 0:00:01.000 0:00:01.000 778 kbps 778 kbps 00:00:01.960 0 kbps 00:00:00.000 0 kbps 00:00:00.000 97318 bytes 97318 bytes 00:00:02.961
3 0:00:02.001 0:00:01.001 1390 kbps 1390 kbps 00:00:02.961 0 kbps 00:00:00.000 0 kbps 00:00:00.000 173980 bytes 173980 bytes 00:00:03.962
4 0:00:03.003 0:00:01.000 1084 kbps 1084 kbps 00:00:03.962 0 kbps 00:00:00.000 0 kbps 00:00:00.000 135680 bytes 135680 bytes 00:00:04.963
5 0:00:04.004 0:00:01.000 1021 kbps 1021 kbps 00:00:04.963 0 kbps 00:00:00.000 0 kbps 00:00:00.000 127691 bytes 127691 bytes 00:00:05.964
6 0:00:05.004 0:00:01.000 769 kbps 769 kbps 00:00:05.964 0 kbps 00:00:00.000 0 kbps 00:00:00.000 96259 bytes 96259 bytes 00:00:06.965
7 0:00:06.005 0:00:01.000 1054 kbps 1054 kbps 00:00:06.965 0 kbps 00:00:00.000 0 kbps 00:00:00.000 131917 bytes 131917 bytes 00:00:07.966
8 0:00:07.006 0:00:01.001 2472 kbps 2472 kbps 00:00:07.966 0 kbps 00:00:00.000 0 kbps 00:00:00.000 309360 bytes 309360 bytes 00:00:08.967
9 0:00:08.008 0:00:01.000 2476 kbps 2476 kbps 00:00:08.967 0 kbps 00:00:00.000 0 kbps 00:00:00.000 309747 bytes 309747 bytes 00:00:09.968
10 0:00:09.009 0:00:01.000 1929 kbps 1929 kbps 00:00:09.968 0 kbps 00:00:00.000 0 kbps 00:00:00.000 241311 bytes 241311 bytes 00:00:10.969
11 0:00:10.009 0:00:01.000 2135 kbps 2135 kbps 00:00:10.969 0 kbps 00:00:00.000 0 kbps 00:00:00.000 267103 bytes 267103 bytes 00:00:11.970
12 0:00:11.010 0:00:01.000 2052 kbps 2052 kbps 00:00:11.970 0 kbps 00:00:00.000 0 kbps 00:00:00.000 256813 bytes 256813 bytes 00:00:12.971
13 0:00:12.011 0:00:01.001 2335 kbps 2335 kbps 00:00:12.971 0 kbps 00:00:00.000 0 kbps 00:00:00.000 292173 bytes 292173 bytes 00:00:13.972
14 0:00:13.013 0:00:01.000 2914 kbps 2914 kbps 00:00:13.972 0 kbps 00:00:00.000 0 kbps 00:00:00.000 364573 bytes 364573 bytes 00:00:14.973
15 0:00:14.014 0:00:01.000 2632 kbps 2632 kbps 00:00:14.973 0 kbps 00:00:00.000 0 kbps 00:00:00.000 329278 bytes 329278 bytes 00:00:15.974
16 0:00:15.014 0:00:01.000 2325 kbps 2325 kbps 00:00:15.974 0 kbps 00:00:00.000 0 kbps 00:00:00.000 290897 bytes 290897 bytes 00:00:16.975
17 0:00:16.015 0:00:01.001 2261 kbps 2261 kbps 00:00:16.975 0 kbps 00:00:00.000 0 kbps 00:00:00.000 282939 bytes 282939 bytes 00:00:17.976
18 0:00:17.017 0:00:01.000 2198 kbps 2198 kbps 00:00:17.976 0 kbps 00:00:00.000 0 kbps 00:00:00.000 275054 bytes 275054 bytes 00:00:18.977
19 0:00:18.018 0:00:01.000 2755 kbps 2755 kbps 00:00:18.977 0 kbps 00:00:00.000 0 kbps 00:00:00.000 344722 bytes 344722 bytes 00:00:19.978
20 0:00:19.019 0:00:01.000 2529 kbps 2529 kbps 00:00:19.978 0 kbps 00:00:00.000 0 kbps 00:00:00.000 316418 bytes 316418 bytes 00:00:20.979
21 0:00:20.019 0:00:01.000 2244 kbps 2244 kbps 00:00:20.979 0 kbps 00:00:00.000 0 kbps 00:00:00.000 280814 bytes 280814 bytes 00:00:21.980
22 0:00:21.020 0:00:01.001 2085 kbps 2085 kbps 00:00:21.980 0 kbps 00:00:00.000 0 kbps 00:00:00.000 260925 bytes 260925 bytes 00:00:22.981
23 0:00:22.022 0:00:01.000 2289 kbps 2289 kbps 00:00:22.981 0 kbps 00:00:00.000 0 kbps 00:00:00.000 286441 bytes 286441 bytes 00:00:23.982
24 0:00:23.023 0:00:01.000 2766 kbps 2766 kbps 00:00:23.982 0 kbps 00:00:00.000 0 kbps 00:00:00.000 346136 bytes 346136 bytes 00:00:24.983
25 0:00:24.024 0:00:01.000 2559 kbps 2559 kbps 00:00:24.983 0 kbps 00:00:00.000 0 kbps 00:00:00.000 320192 bytes 320192 bytes 00:00:25.984
26 0:00:25.024 0:00:01.000 2447 kbps 2447 kbps 00:00:25.984 0 kbps 00:00:00.000 0 kbps 00:00:00.000 306176 bytes 306176 bytes 00:00:26.985
27 0:00:26.025 0:00:01.001 2780 kbps 2780 kbps 00:00:26.985 0 kbps 00:00:00.000 0 kbps 00:00:00.000 347875 bytes 347875 bytes 00:00:27.986
28 0:00:27.027 0:00:01.000 2123 kbps 2123 kbps 00:00:27.986 0 kbps 00:00:00.000 0 kbps 00:00:00.000 265601 bytes 265601 bytes 00:00:28.987
29 0:00:28.028 0:00:01.000 1862 kbps 1862 kbps 00:00:28.987 0 kbps 00:00:00.000 0 kbps 00:00:00.000 233035 bytes 233035 bytes 00:00:29.988
30 0:00:29.028 0:00:01.000 2524 kbps 2524 kbps 00:00:29.988 0 kbps 00:00:00.000 0 kbps 00:00:00.000 315872 bytes 315872 bytes 00:00:30.989
31 0:00:30.029 0:00:01.000 2384 kbps 2384 kbps 00:00:30.989 0 kbps 00:00:00.000 0 kbps 00:00:00.000 298340 bytes 298340 bytes 00:00:31.990
32 0:00:31.030 0:00:01.001 1795 kbps 1795 kbps 00:00:31.990 0 kbps 00:00:00.000 0 kbps 00:00:00.000 224618 bytes 224618 bytes 00:00:32.991
33 0:00:32.032 0:00:01.000 1264 kbps 1264 kbps 00:00:32.991 0 kbps 00:00:00.000 0 kbps 00:00:00.000 158192 bytes 158192 bytes 00:00:33.992
34 0:00:33.033 0:00:01.000 2524 kbps 2524 kbps 00:00:33.992 0 kbps 00:00:00.000 0 kbps 00:00:00.000 315775 bytes 315775 bytes 00:00:34.993
35 0:00:34.033 0:00:01.000 2679 kbps 2679 kbps 00:00:34.993 0 kbps 00:00:00.000 0 kbps 00:00:00.000 335236 bytes 335236 bytes 00:00:35.994
36 0:00:35.034 0:00:01.000 2451 kbps 2451 kbps 00:00:35.994 0 kbps 00:00:00.000 0 kbps 00:00:00.000 306719 bytes 306719 bytes 00:00:36.995
37 0:00:36.035 0:00:01.001 1867 kbps 1867 kbps 00:00:36.995 0 kbps 00:00:00.000 0 kbps 00:00:00.000 233632 bytes 233632 bytes 00:00:37.996
38 0:00:37.037 0:00:01.000 1823 kbps 1823 kbps 00:00:37.996 0 kbps 00:00:00.000 0 kbps 00:00:00.000 228086 bytes 228086 bytes 00:00:38.997
39 0:00:38.038 0:00:01.000 1767 kbps 1767 kbps 00:00:38.997 0 kbps 00:00:00.000 0 kbps 00:00:00.000 221096 bytes 221096 bytes 00:00:39.998
40 0:00:39.038 0:00:01.000 2933 kbps 2933 kbps 00:00:39.998 0 kbps 00:00:00.000 0 kbps 00:00:00.000 366986 bytes 366986 bytes 00:00:40.999
41 0:00:40.039 0:00:01.001 2142 kbps 2142 kbps 00:00:40.999 0 kbps 00:00:00.000 0 kbps 00:00:00.000 268008 bytes 268008 bytes 00:00:42.000
42 0:00:41.041 0:00:01.000 2046 kbps 2046 kbps 00:00:42.000 0 kbps 00:00:00.000 0 kbps 00:00:00.000 256008 bytes 256008 bytes 00:00:43.001
43 0:00:42.042 0:00:01.000 2577 kbps 2577 kbps 00:00:43.001 0 kbps 00:00:00.000 0 kbps 00:00:00.000 322481 bytes 322481 bytes 00:00:44.002
44 0:00:43.043 0:00:01.000 2793 kbps 2793 kbps 00:00:44.002 0 kbps 00:00:00.000 0 kbps 00:00:00.000 349450 bytes 349450 bytes 00:00:45.003
45 0:00:44.043 0:00:01.000 2476 kbps 2476 kbps 00:00:45.003 0 kbps 00:00:00.000 0 kbps 00:00:00.000 309800 bytes 309800 bytes 00:00:46.004
46 0:00:45.044 0:00:01.001 2683 kbps 2683 kbps 00:00:46.004 0 kbps 00:00:00.000 0 kbps 00:00:00.000 335723 bytes 335723 bytes 00:00:47.005
47 0:00:46.046 0:00:01.000 2573 kbps 2573 kbps 00:00:47.005 0 kbps 00:00:00.000 0 kbps 00:00:00.000 321906 bytes 321906 bytes 00:00:48.006
48 0:00:47.047 0:00:01.000 2668 kbps 2668 kbps 00:00:48.006 0 kbps 00:00:00.000 0 kbps 00:00:00.000 333795 bytes 333795 bytes 00:00:49.007
49 0:00:48.048 0:00:01.000 2153 kbps 2153 kbps 00:00:49.007 0 kbps 00:00:00.000 0 kbps 00:00:00.000 269341 bytes 269341 bytes 00:00:50.008
50 0:00:49.048 0:00:01.000 2080 kbps 2080 kbps 00:00:50.008 0 kbps 00:00:00.000 0 kbps 00:00:00.000 260269 bytes 260269 bytes 00:00:51.009
51 0:00:50.049 0:00:01.001 2031 kbps 2031 kbps 00:00:51.009 0 kbps 00:00:00.000 0 kbps 00:00:00.000 254073 bytes 254073 bytes 00:00:52.010
52 0:00:51.051 0:00:01.000 2277 kbps 2277 kbps 00:00:52.010 0 kbps 00:00:00.000 0 kbps 00:00:00.000 284959 bytes 284959 bytes 00:00:53.011
53 0:00:52.052 0:00:01.000 2757 kbps 2757 kbps 00:00:53.011 0 kbps 00:00:00.000 0 kbps 00:00:00.000 344984 bytes 344984 bytes 00:00:54.012
54 0:00:53.053 0:00:01.000 2680 kbps 2680 kbps 00:00:54.012 0 kbps 00:00:00.000 0 kbps 00:00:00.000 335354 bytes 335354 bytes 00:00:55.013
55 0:00:54.053 0:00:01.000 2652 kbps 2652 kbps 00:00:55.013 0 kbps 00:00:00.000 0 kbps 00:00:00.000 331820 bytes 331820 bytes 00:00:56.014
56 0:00:55.054 0:00:01.001 2297 kbps 2297 kbps 00:00:56.014 0 kbps 00:00:00.000 0 kbps 00:00:00.000 287461 bytes 287461 bytes 00:00:57.015
57 0:00:56.056 0:00:01.000 1448 kbps 1448 kbps 00:00:57.015 0 kbps 00:00:00.000 0 kbps 00:00:00.000 181161 bytes 181161 bytes 00:00:58.016
58 0:00:57.057 0:00:01.000 1381 kbps 1381 kbps 00:00:58.016 0 kbps 00:00:00.000 0 kbps 00:00:00.000 172859 bytes 172859 bytes 00:00:59.017
59 0:00:58.057 0:00:01.000 2450 kbps 2450 kbps 00:00:59.017 0 kbps 00:00:00.000 0 kbps 00:00:00.000 306548 bytes 306548 bytes 00:01:00.018
60 0:00:59.058 0:00:01.000 2483 kbps 2483 kbps 00:01:00.018 0 kbps 00:00:00.000 0 kbps 00:00:00.000 310647 bytes 310647 bytes 00:01:01.019
61 0:01:00.059 0:00:01.001 2611 kbps 2611 kbps 00:01:01.019 0 kbps 00:00:00.000 0 kbps 00:00:00.000 326748 bytes 326748 bytes 00:01:02.020
62 0:01:01.061 0:00:01.000 2346 kbps 2346 kbps 00:01:02.020 0 kbps 00:00:00.000 0 kbps 00:00:00.000 293588 bytes 293588 bytes 00:01:03.021
63 0:01:02.062 0:00:01.000 2538 kbps 2538 kbps 00:01:03.021 0 kbps 00:00:00.000 0 kbps 00:00:00.000 317565 bytes 317565 bytes 00:01:04.022
64 0:01:03.062 0:00:01.000 2185 kbps 2185 kbps 00:01:04.022 0 kbps 00:00:00.000 0 kbps 00:00:00.000 273356 bytes 273356 bytes 00:01:05.023
65 0:01:04.063 0:00:01.001 2190 kbps 2190 kbps 00:01:05.023 0 kbps 00:00:00.000 0 kbps 00:00:00.000 273968 bytes 273968 bytes 00:01:06.024
66 0:01:05.065 0:00:01.000 2638 kbps 2638 kbps 00:01:06.024 0 kbps 00:00:00.000 0 kbps 00:00:00.000 330067 bytes 330067 bytes 00:01:07.025
67 0:01:06.066 0:00:01.000 2725 kbps 2725 kbps 00:01:07.025 0 kbps 00:00:00.000 0 kbps 00:00:00.000 341008 bytes 341008 bytes 00:01:08.026
68 0:01:07.067 0:00:01.000 3133 kbps 3133 kbps 00:01:08.026 0 kbps 00:00:00.000 0 kbps 00:00:00.000 391956 bytes 391956 bytes 00:01:09.027
69 0:01:08.067 0:00:01.000 1989 kbps 1989 kbps 00:01:09.027 0 kbps 00:00:00.000 0 kbps 00:00:00.000 248854 bytes 248854 bytes 00:01:10.028
70 0:01:09.068 0:00:01.001 2448 kbps 2448 kbps 00:01:10.028 0 kbps 00:00:00.000 0 kbps 00:00:00.000 306365 bytes 306365 bytes 00:01:11.029
71 0:01:10.070 0:00:01.000 2905 kbps 2905 kbps 00:01:11.029 0 kbps 00:00:00.000 0 kbps 00:00:00.000 363430 bytes 363430 bytes 00:01:12.030
72 0:01:11.071 0:00:01.000 2963 kbps 2963 kbps 00:01:12.030 0 kbps 00:00:00.000 0 kbps 00:00:00.000 370718 bytes 370718 bytes 00:01:13.031
73 0:01:12.072 0:00:01.000 2808 kbps 2808 kbps 00:01:13.031 0 kbps 00:00:00.000 0 kbps 00:00:00.000 351405 bytes 351405 bytes 00:01:14.032
74 0:01:13.072 0:00:01.000 2577 kbps 2577 kbps 00:01:14.032 0 kbps 00:00:00.000 0 kbps 00:00:00.000 322454 bytes 322454 bytes 00:01:15.033
75 0:01:14.073 0:00:01.001 2652 kbps 2652 kbps 00:01:15.033 0 kbps 00:00:00.000 0 kbps 00:00:00.000 331870 bytes 331870 bytes 00:01:16.034
76 0:01:15.075 0:00:01.000 2347 kbps 2347 kbps 00:01:16.034 0 kbps 00:00:00.000 0 kbps 00:00:00.000 293673 bytes 293673 bytes 00:01:17.035
77 0:01:16.076 0:00:01.000 2225 kbps 2225 kbps 00:01:17.035 0 kbps 00:00:00.000 0 kbps 00:00:00.000 278410 bytes 278410 bytes 00:01:18.036
78 0:01:17.077 0:00:01.000 2406 kbps 2406 kbps 00:01:18.036 0 kbps 00:00:00.000 0 kbps 00:00:00.000 301058 bytes 301058 bytes 00:01:19.037
79 0:01:18.077 0:00:01.000 2721 kbps 2721 kbps 00:01:19.037 0 kbps 00:00:00.000 0 kbps 00:00:00.000 340416 bytes 340416 bytes 00:01:20.038
80 0:01:19.078 0:00:01.001 2577 kbps 2577 kbps 00:01:20.038 0 kbps 00:00:00.000 0 kbps 00:00:00.000 322397 bytes 322397 bytes 00:01:21.039
81 0:01:20.080 0:00:01.000 1477 kbps 1477 kbps 00:01:21.039 0 kbps 00:00:00.000 0 kbps 00:00:00.000 184865 bytes 184865 bytes 00:01:22.040
82 0:01:21.081 0:00:01.000 1388 kbps 1388 kbps 00:01:22.040 0 kbps 00:00:00.000 0 kbps 00:00:00.000 173622 bytes 173622 bytes 00:01:23.041
83 0:01:22.081 0:00:01.000 2785 kbps 2785 kbps 00:01:23.041 0 kbps 00:00:00.000 0 kbps 00:00:00.000 348468 bytes 348468 bytes 00:01:24.042
84 0:01:23.082 0:00:01.000 1969 kbps 1969 kbps 00:01:24.042 0 kbps 00:00:00.000 0 kbps 00:00:00.000 246401 bytes 246401 bytes 00:01:25.043
85 0:01:24.083 0:00:01.001 2578 kbps 2578 kbps 00:01:25.043 0 kbps 00:00:00.000 0 kbps 00:00:00.000 322556 bytes 322556 bytes 00:01:26.044
86 0:01:25.085 0:00:01.000 2832 kbps 2832 kbps 00:01:26.044 0 kbps 00:00:00.000 0 kbps 00:00:00.000 354334 bytes 354334 bytes 00:01:27.045
87 0:01:26.086 0:00:01.000 2864 kbps 2864 kbps 00:01:27.045 0 kbps 00:00:00.000 0 kbps 00:00:00.000 358312 bytes 358312 bytes 00:01:28.046
88 0:01:27.086 0:00:01.000 2635 kbps 2635 kbps 00:01:28.046 0 kbps 00:00:00.000 0 kbps 00:00:00.000 329711 bytes 329711 bytes 00:01:29.047
89 0:01:28.087 0:00:01.001 2211 kbps 2211 kbps 00:01:29.047 0 kbps 00:00:00.000 0 kbps 00:00:00.000 276670 bytes 276670 bytes 00:01:30.048
90 0:01:29.089 0:00:01.000 1998 kbps 1998 kbps 00:01:30.048 0 kbps 00:00:00.000 0 kbps 00:00:00.000 249993 bytes 249993 bytes 00:01:31.049
91 0:01:30.090 0:00:01.000 2050 kbps 2050 kbps 00:01:31.049 0 kbps 00:00:00.000 0 kbps 00:00:00.000 256534 bytes 256534 bytes 00:01:32.050
92 0:01:31.091 0:00:01.000 2501 kbps 2501 kbps 00:01:32.050 0 kbps 00:00:00.000 0 kbps 00:00:00.000 312933 bytes 312933 bytes 00:01:33.051
93 0:01:32.091 0:00:01.000 2953 kbps 2953 kbps 00:01:33.051 0 kbps 00:00:00.000 0 kbps 00:00:00.000 369551 bytes 369551 bytes 00:01:34.052
94 0:01:33.092 0:00:01.001 2455 kbps 2455 kbps 00:01:34.052 0 kbps 00:00:00.000 0 kbps 00:00:00.000 307146 bytes 307146 bytes 00:01:35.053
95 0:01:34.094 0:00:01.000 2176 kbps 2176 kbps 00:01:35.053 0 kbps 00:00:00.000 0 kbps 00:00:00.000 272303 bytes 272303 bytes 00:01:36.054
96 0:01:35.095 0:00:01.000 2021 kbps 2021 kbps 00:01:36.054 0 kbps 00:00:00.000 0 kbps 00:00:00.000 252869 bytes 252869 bytes 00:01:37.055
97 0:01:36.096 0:00:01.000 2238 kbps 2238 kbps 00:01:37.055 0 kbps 00:00:00.000 0 kbps 00:00:00.000 280090 bytes 280090 bytes 00:01:38.056
98 0:01:37.096 0:00:01.000 2817 kbps 2817 kbps 00:01:38.056 0 kbps 00:00:00.000 0 kbps 00:00:00.000 352487 bytes 352487 bytes 00:01:39.057
99 0:01:38.097 0:00:01.001 1044 kbps 1044 kbps 00:01:39.057 0 kbps 00:00:00.000 0 kbps 00:00:00.000 130602 bytes 130602 bytes 00:01:40.058
100 0:01:39.099 0:00:01.000 1473 kbps 1473 kbps 00:01:40.058 0 kbps 00:00:00.000 0 kbps 00:00:00.000 184292 bytes 184292 bytes 00:01:41.059
101 0:01:40.100 0:00:01.000 2049 kbps 2049 kbps 00:01:41.059 0 kbps 00:00:00.000 0 kbps 00:00:00.000 256335 bytes 256335 bytes 00:01:42.060
102 0:01:41.101 0:00:01.000 1869 kbps 1869 kbps 00:01:42.060 0 kbps 00:00:00.000 0 kbps 00:00:00.000 233864 bytes 233864 bytes 00:01:43.061
103 0:01:42.101 0:00:01.000 1949 kbps 1949 kbps 00:01:43.061 0 kbps 00:00:00.000 0 kbps 00:00:00.000 243928 bytes 243928 bytes 00:01:44.062
104 0:01:43.102 0:00:01.001 2263 kbps 2263 kbps 00:01:44.062 0 kbps 00:00:00.000 0 kbps 00:00:00.000 283166 bytes 283166 bytes 00:01:45.063
105 0:01:44.104 0:00:01.000 2657 kbps 2657 kbps 00:01:45.063 0 kbps 00:00:00.000 0 kbps 00:00:00.000 332414 bytes 332414 bytes 00:01:46.064
106 0:01:45.105 0:00:01.000 1958 kbps 1958 kbps 00:01:46.064 0 kbps 00:00:00.000 0 kbps 00:00:00.000 245027 bytes 245027 bytes 00:01:47.065
107 0:01:46.106 0:00:01.000 1962 kbps 1962 kbps 00:01:47.065 0 kbps 00:00:00.000 0 kbps 00:00:00.000 245514 bytes 245514 bytes 00:01:48.066
108 0:01:47.106 0:00:01.000 2087 kbps 2087 kbps 00:01:48.066 0 kbps 00:00:00.000 0 kbps 00:00:00.000 261196 bytes 261196 bytes 00:01:49.067
109 0:01:48.107 0:00:01.001 2435 kbps 2435 kbps 00:01:49.067 0 kbps 00:00:00.000 0 kbps 00:00:00.000 304651 bytes 304651 bytes 00:01:50.068
110 0:01:49.109 0:00:01.000 1699 kbps 1699 kbps 00:01:50.068 0 kbps 00:00:00.000 0 kbps 00:00:00.000 212620 bytes 212620 bytes 00:01:51.069
111 0:01:50.110 0:00:01.000 2899 kbps 2899 kbps 00:01:51.069 0 kbps 00:00:00.000 0 kbps 00:00:00.000 362785 bytes 362785 bytes 00:01:52.070
112 0:01:51.111 0:00:01.000 2763 kbps 2763 kbps 00:01:52.070 0 kbps 00:00:00.000 0 kbps 00:00:00.000 345694 bytes 345694 bytes 00:01:53.071
113 0:01:52.111 0:00:01.001 2838 kbps 2838 kbps 00:01:53.071 0 kbps 00:00:00.000 0 kbps 00:00:00.000 355104 bytes 355104 bytes 00:01:54.072
114 0:01:53.113 0:00:01.000 2724 kbps 2724 kbps 00:01:54.072 0 kbps 00:00:00.000 0 kbps 00:00:00.000 340809 bytes 340809 bytes 00:01:55.073
115 0:01:54.114 0:00:01.000 2470 kbps 2470 kbps 00:01:55.073 0 kbps 00:00:00.000 0 kbps 00:00:00.000 309029 bytes 309029 bytes 00:01:56.074
116 0:01:55.115 0:00:01.000 2902 kbps 2902 kbps 00:01:56.074 0 kbps 00:00:00.000 0 kbps 00:00:00.000 363133 bytes 363133 bytes 00:01:57.075
117 0:01:56.115 0:00:01.000 2630 kbps 2630 kbps 00:01:57.075 0 kbps 00:00:00.000 0 kbps 00:00:00.000 329080 bytes 329080 bytes 00:01:58.076
118 0:01:57.116 0:00:01.001 3112 kbps 3112 kbps 00:01:58.076 0 kbps 00:00:00.000 0 kbps 00:00:00.000 389351 bytes 389351 bytes 00:01:59.077
119 0:01:58.118 0:00:01.000 2844 kbps 2844 kbps 00:01:59.077 0 kbps 00:00:00.000 0 kbps 00:00:00.000 355873 bytes 355873 bytes 00:02:00.078
120 0:01:59.119 0:00:01.000 2829 kbps 2829 kbps 00:02:00.078 0 kbps 00:00:00.000 0 kbps 00:00:00.000 353973 bytes 353973 bytes 00:02:01.079
121 0:02:00.120 0:00:01.000 2844 kbps 2844 kbps 00:02:01.079 0 kbps 00:00:00.000 0 kbps 00:00:00.000 355879 bytes 355879 bytes 00:02:02.080
122 0:02:01.120 0:00:01.000 2991 kbps 2991 kbps 00:02:02.080 0 kbps 00:00:00.000 0 kbps 00:00:00.000 374239 bytes 374239 bytes 00:02:03.081
123 0:02:02.121 0:00:01.001 2711 kbps 2711 kbps 00:02:03.081 0 kbps 00:00:00.000 0 kbps 00:00:00.000 339198 bytes 339198 bytes 00:02:04.082
124 0:02:03.123 0:00:01.000 2680 kbps 2680 kbps 00:02:04.082 0 kbps 00:00:00.000 0 kbps 00:00:00.000 335381 bytes 335381 bytes 00:02:05.083
125 0:02:04.124 0:00:01.000 2722 kbps 2722 kbps 00:02:05.083 0 kbps 00:00:00.000 0 kbps 00:00:00.000 340559 bytes 340559 bytes 00:02:06.084
126 0:02:05.125 0:00:01.000 2771 kbps 2771 kbps 00:02:06.084 0 kbps 00:00:00.000 0 kbps 00:00:00.000 346678 bytes 346678 bytes 00:02:07.085
127 0:02:06.125 0:00:01.000 2498 kbps 2498 kbps 00:02:07.085 0 kbps 00:00:00.000 0 kbps 00:00:00.000 312558 bytes 312558 bytes 00:02:08.086
128 0:02:07.126 0:00:01.001 2303 kbps 2303 kbps 00:02:08.086 0 kbps 00:00:00.000 0 kbps 00:00:00.000 288179 bytes 288179 bytes 00:02:09.087
129 0:02:08.128 0:00:01.000 2288 kbps 2288 kbps 00:02:09.087 0 kbps 00:00:00.000 0 kbps 00:00:00.000 286312 bytes 286312 bytes 00:02:10.088
130 0:02:09.129 0:00:01.000 2545 kbps 2545 kbps 00:02:10.088 0 kbps 00:00:00.000 0 kbps 00:00:00.000 318468 bytes 318468 bytes 00:02:11.089
131 0:02:10.130 0:00:01.000 2330 kbps 2330 kbps 00:02:11.089 0 kbps 00:00:00.000 0 kbps 00:00:00.000 291556 bytes 291556 bytes 00:02:12.090
132 0:02:11.130 0:00:01.000 2212 kbps 2212 kbps 00:02:12.090 0 kbps 00:00:00.000 0 kbps 00:00:00.000 276769 bytes 276769 bytes 00:02:13.091
133 0:02:12.131 0:00:01.001 2205 kbps 2205 kbps 00:02:13.091 0 kbps 00:00:00.000 0 kbps 00:00:00.000 275953 bytes 275953 bytes 00:02:14.092
134 0:02:13.133 0:00:01.000 1895 kbps 1895 kbps 00:02:14.092 0 kbps 00:00:00.000 0 kbps 00:00:00.000 237115 bytes 237115 bytes 00:02:15.093
135 0:02:14.134 0:00:01.000 1853 kbps 1853 kbps 00:02:15.093 0 kbps 00:00:00.000 0 kbps 00:00:00.000 231852 bytes 231852 bytes 00:02:16.094
136 0:02:15.135 0:00:01.000 1537 kbps 1537 kbps 00:02:16.094 0 kbps 00:00:00.000 0 kbps 00:00:00.000 192270 bytes 192270 bytes 00:02:17.095
137 0:02:16.135 0:00:01.000 2854 kbps 2854 kbps 00:02:17.095 0 kbps 00:00:00.000 0 kbps 00:00:00.000 357075 bytes 357075 bytes 00:02:18.096
138 0:02:17.136 0:00:01.001 2536 kbps 2536 kbps 00:02:18.096 0 kbps 00:00:00.000 0 kbps 00:00:00.000 317263 bytes 317263 bytes 00:02:19.097
139 0:02:18.138 0:00:01.000 2225 kbps 2225 kbps 00:02:19.097 0 kbps 00:00:00.000 0 kbps 00:00:00.000 278352 bytes 278352 bytes 00:02:20.098
140 0:02:19.139 0:00:01.000 2156 kbps 2156 kbps 00:02:20.098 0 kbps 00:00:00.000 0 kbps 00:00:00.000 269757 bytes 269757 bytes 00:02:21.099
141 0:02:20.139 0:00:01.000 2107 kbps 2107 kbps 00:02:21.099 0 kbps 00:00:00.000 0 kbps 00:00:00.000 263671 bytes 263671 bytes 00:02:22.100
142 0:02:21.140 0:00:01.001 2768 kbps 2768 kbps 00:02:22.100 0 kbps 00:00:00.000 0 kbps 00:00:00.000 346399 bytes 346399 bytes 00:02:23.101
143 0:02:22.142 0:00:01.000 2268 kbps 2268 kbps 00:02:23.101 0 kbps 00:00:00.000 0 kbps 00:00:00.000 283743 bytes 283743 bytes 00:02:24.102
144 0:02:23.143 0:00:01.000 2259 kbps 2259 kbps 00:02:24.102 0 kbps 00:00:00.000 0 kbps 00:00:00.000 282685 bytes 282685 bytes 00:02:25.103
145 0:02:24.144 0:00:01.000 2987 kbps 2987 kbps 00:02:25.103 0 kbps 00:00:00.000 0 kbps 00:00:00.000 373728 bytes 373728 bytes 00:02:26.104
146 0:02:25.144 0:00:01.000 2764 kbps 2764 kbps 00:02:26.104 0 kbps 00:00:00.000 0 kbps 00:00:00.000 345793 bytes 345793 bytes 00:02:27.105
147 0:02:26.145 0:00:01.001 1944 kbps 1944 kbps 00:02:27.105 0 kbps 00:00:00.000 0 kbps 00:00:00.000 243224 bytes 243224 bytes 00:02:28.106
148 0:02:27.147 0:00:01.000 1997 kbps 1997 kbps 00:02:28.106 0 kbps 00:00:00.000 0 kbps 00:00:00.000 249920 bytes 249920 bytes 00:02:29.107
149 0:02:28.148 0:00:01.000 2165 kbps 2165 kbps 00:02:29.107 0 kbps 00:00:00.000 0 kbps 00:00:00.000 270928 bytes 270928 bytes 00:02:30.108
150 0:02:29.149 0:00:01.000 2985 kbps 2985 kbps 00:02:30.108 0 kbps 00:00:00.000 0 kbps 00:00:00.000 373471 bytes 373471 bytes 00:02:31.109
151 0:02:30.149 0:00:01.000 2355 kbps 2355 kbps 00:02:31.109 0 kbps 00:00:00.000 0 kbps 00:00:00.000 294728 bytes 294728 bytes 00:02:32.110
152 0:02:31.150 0:00:01.001 2576 kbps 2576 kbps 00:02:32.110 0 kbps 00:00:00.000 0 kbps 00:00:00.000 322279 bytes 322279 bytes 00:02:33.111
153 0:02:32.152 0:00:01.000 2045 kbps 2045 kbps 00:02:33.111 0 kbps 00:00:00.000 0 kbps 00:00:00.000 255894 bytes 255894 bytes 00:02:34.112
154 0:02:33.153 0:00:01.000 1990 kbps 1990 kbps 00:02:34.112 0 kbps 00:00:00.000 0 kbps 00:00:00.000 248957 bytes 248957 bytes 00:02:35.113
155 0:02:34.154 0:00:01.000 2246 kbps 2246 kbps 00:02:35.113 0 kbps 00:00:00.000 0 kbps 00:00:00.000 281080 bytes 281080 bytes 00:02:36.114
156 0:02:35.154 0:00:01.000 1693 kbps 0 kbps 00:00:00.000 0 kbps 00:00:00.000 0 kbps 00:00:00.000 211869 bytes 211869 bytes 00:02:37.073
157 0:02:36.155 0:00:01.001 29270705 kbps 4633 kbps 00:01:07.984 3236 kbps 00:01:58.034 2983 kbps 00:01:56.032 295291 bytes 391956 bytes 00:01:09.027

STREAM DIAGNOSTICS:

File PID Type Codec Language Seconds Bitrate Bytes Packets
---- --- ---- ----- -------- -------------- -------------- ------------- -----
00012.M2TS 4113 (0x1011) 0x02 MPEG-2 156,114 2343 45714338 248540
<pre>
<---- END FORUMS PASTE ---->

QUICK SUMMARY:

Disc Title: 1994 PompokoDisc Size: 44 610 864 106 bytesProtection: AACSBD-Java: NoPlaylist: 00011.MPLSSize: 48 734 208 bytesLength: 0:02:37.157Total Bitrate: 2,48 MbpsVideo: MPEG-2 Video / 1189 kbps / 1080p / 23,976 fps / 16:9

********************PLAYLIST: 00002.MPLS********************

<--- BEGIN FORUMS PASTE --->
</pre>
Total Video
Title Codec Length Movie Size Disc Size Bitrate Bitrate Main Audio Track Secondary Audio Track
----- ------ ------- -------------- -------------- ------- ------- ------------------ ---------------------
00002.MPLS AVC 0:01:02 41588736 44610864106 5,32 4,79 DD AC3 2.0 192Kbps
DISC INFO:

Disc Title: 1994 Pompoko
Disc Size: 44610864106 bytes
Protection: AACS
BD-Java: No
BDInfo: 0.5.8

PLAYLIST REPORT:

Name: 00002.MPLS
Length: 0:01:02.562 (h:m:s.ms)
Size: 41588736 bytes
Total Bitrate: 5,32 Mbps

VIDEO:

Codec Bitrate Description
----- ------- -----------
MPEG-4 AVC Video 4794 kbps 1080p / 23,976 fps / 16:9 / High Profile 4.1

AUDIO:

Codec Language Bitrate Description
----- -------- ------- -----------
Dolby Digital Audio Japanese 192 kbps 2.0 / 48 kHz / 192 kbps

FILES:

Name Time In Length Size Total Bitrate
---- ------- ------ ---- -------------
00003.M2TS 0:00:00.000 0:00:31.030 28477440 7342
00004.M2TS 0:00:31.030 0:00:06.005 1449984 1931
00005.M2TS 0:00:37.036 0:00:18.518 10371072 4480
00006.M2TS 0:00:55.555 0:00:07.006 1290240 1473

CHAPTERS:

Number Time In Length Avg Video Rate Max 1-Sec Rate Max 1-Sec Time Max 5-Sec Rate Max 5-Sec Time Max 10Sec Rate Max 10Sec Time Avg Frame Size Max Frame Size Max Frame Time
------ ------- ------ -------------- -------------- -------------- -------------- -------------- -------------- -------------- -------------- -------------- --------------
1 0:00:00.000 0:00:30.029 6956 kbps 22798 kbps 00:00:28.403 9159 kbps 00:00:24.399 7967 kbps 00:00:19.394 36216 bytes 548217 bytes 00:00:10.510
2 0:00:30.029 0:00:06.005 1544 kbps 2974 kbps 00:00:34.826 1829 kbps 00:00:30.530 0 kbps 00:00:00.000 8048 bytes 179493 bytes 00:00:31.948
3 0:00:36.035 0:00:18.143 3943 kbps 11563 kbps 00:00:53.094 5101 kbps 00:00:37.495 4394 kbps 00:00:37.495 20555 bytes 243076 bytes 00:00:51.134
4 0:00:54.179 0:00:07.382 1372 kbps 2448 kbps 00:00:54.179 1484 kbps 00:00:56.055 0 kbps 00:00:00.000 7152 bytes 85792 bytes 00:00:54.262
5 0:01:01.561 0:00:01.000 112 kbps 0 kbps 00:00:00.000 0 kbps 00:00:00.000 0 kbps 00:00:00.000 610 bytes 831 bytes 00:01:01.728

STREAM DIAGNOSTICS:

File PID Type Codec Language Seconds Bitrate Bytes Packets
---- --- ---- ----- -------- -------------- -------------- ------------- -----
00003.M2TS 4113 (0x1011) 0x1B AVC 30,906 6763 26126048 142385
00003.M2TS 4352 (0x1100) 0x81 AC3 jpn (Japanese) 30,906 193 745728 4855
00004.M2TS 4113 (0x1011) 0x1B AVC 5,881 1577 1158936 6404
00004.M2TS 4352 (0x1100) 0x81 AC3 jpn (Japanese) 5,881 196 144384 940
00005.M2TS 4113 (0x1011) 0x1B AVC 18,393 4019 9239408 50472
00005.M2TS 4352 (0x1100) 0x81 AC3 jpn (Japanese) 18,393 193 444672 2895
00006.M2TS 4113 (0x1011) 0x1B AVC 6,882 1125 967910 5376
00006.M2TS 4352 (0x1100) 0x81 AC3 jpn (Japanese) 6,882 196 168192 1095
<pre>
<---- END FORUMS PASTE ---->

QUICK SUMMARY:

Disc Title: 1994 PompokoDisc Size: 44 610 864 106 bytesProtection: AACSBD-Java: NoPlaylist: 00002.MPLSSize: 41 588 736 bytesLength: 0:01:02.562Total Bitrate: 5,32 MbpsVideo: MPEG-4 AVC Video / 4794 kbps / 1080p / 23,976 fps / 16:9 / High Profile 4.1Audio: Japanese / Dolby Digital Audio / 2.0 / 48 kHz / 192 kbps
</pre>
MGVC- " ". 36- BD- KDM ( ) .
LPCM StudioCanal.
. PopUp- .
Sonic Scenarist. Sony PS3, TMT5 PowerDVD 12 Toshiba BDX1200.

" " ( BurniN∙SnikerS, .. , , , , )
" " ""


.
[url]...4639380[/url]
[url]...4701348[/url]

- Blu-ray
GHIBLI GA IPPAI COLLECTION

1ST WAVE - 2010
07/14/2010 [url=...4629918] [/url] (1984)
12/22/2010 [url=...3690943] [/url] (1986)
12/22/2010 [url=...4119317] [/url] (1999)

2ND WAVE - 2011
06/17/2011 (2010)
07/20/2011 [url=...4178733]ظ [/url] (1995)

3RD WAVE - 2011
11/16/2011 [url=...3875703] [/url] (2004)
11/16/2011 [url=...4465304] [/url] (2006)
11/16/2011 [] (2008)

4TH WAVE - 2012
06/20/2012 (2011)
07/18/2012 [url=...4766434] [/url] (1988)
07/18/2012 [url=...4651642] [/url] (1988)

5TH WAVE - 2012
12/04/2012 [url=...4901371] [/url] (1989)
12/04/2012 (1991)

6TH WAVE - 2013
07/17/2013 (1992)
11/06/2013 (1994)

7TH WAVE - 2013
12/04/2013 [url=...4851914] [/url] (1997)
12/04/2013 (2002)

8TH WAVE - 2014
06/18/2014 (2013)
07/16/2014 (2001)
08/06/2014 III: [1080p] (1979)

9TH WAVE - 2014-2015
12/03/2014
03/18/2015

ORIGINAL BLU-RAY RELEASES

07/04/2007 [url=...2249223] [/url] (2007)
12/19/2007 [url=...4818346] : [/url] (2007)
07/03/2009 [url=...3692012] ""[/url] (2008)
12/09/2009 (2008)
11/17/2010 [Theatrical Feature] (2010)
05/21/2014 [url=...4929876] [/url] (2014)

NON-GHIBLI BLU-RAY RELEASES

07/25/2008 [url=...4722800] [/url] (1981)
07/25/2008 [url=...4612785] [/url] (1984)
12/03/2008 III: [1080i] (1979)
04/17/2012 ! (1972)


 ·  , , FAQ-
:  [ 10--2015 00:30 ]

  

.torrent

.torrent 109 KB


: 41.55 GB
(hash) : abc8416cea1c3a9840389d5b99d3aa6931f6c863
:
··
...

Heisei Tanuki Gassen Ponpoko . !

!