Скачать через торрент Трансформеры: Тайна Конвоя QTF бесплатно Аниме Все серии на русском torrent

Если у вас наблюдаются проблемы со скриншотами, переходом по ссылками, скачиванием торрентов - проблемы в блокировщике рекламы AdBlock. #хорошегоДня!


Статистика раздачи
Размер:  51 MB   |    Зарегистрирован:  2 года 7 месяцев   |    .torrent скачан:  41 раз   |   
Раздают:  1  
   
Загрузка...
 
Автор Сообщение

Galfimbul

avatar Galfimbul


Трансформеры: Тайна Конвоя / Q Transformers: Kaette Kita Convoy no Nazo

Страна: Япония
Год выпуска: 2015 г.
Жанр: приключения
Тип: TV
Продолжительность: 12 эп. по 5 мин.
Режиссер: Котаро Ишидате
Студия: DLE Inc.

Описание: Hас ждёт flash-сериал по мотивам игры для NES про трансформеров 1986 года выпуска. Делает его режиссёр Котаро Ишидате («Внешкольные занятия») на студии DLE. Также к сериалу имеет какое-то отношение сэйю Рёхэй Кимура (Акира Такидзава в «Восточном Эдеме»). На этом всё.

Качество: WEBRip
Тип релиза: Без хардсаба
Формат видео: MP4
Наличие линковки: Нет
Релиз/Автор рипа: DLE Channel
Видео: H264, 1280x720, 8bits, 1400kbps, 29.970fps
Аудио: AAC, 2ch, 192kbps, 44.1kHz Язык Японский
Субтитры: ass, отдельным файлом Язык субтитров русский ; Перевод: Saika_mint ; Редактор: Unnmd
Format : MPEG-4Format profile : Base Media / Version 2Codec ID : mp42File size : 51.3 MiBDuration : 4mn 30sOverall bit rate mode : VariableOverall bit rate : 1 595 Kbps

VideoID : 1Format : AVCFormat/Info : Advanced Video CodecFormat profile : High@L3.1Format settings, CABAC : YesFormat settings, ReFrames : 1 frameCodec ID : avc1Codec ID/Info : Advanced Video CodingDuration : 4mn 30sBit rate : 1 400 KbpsMaximum bit rate : 5 060 KbpsWidth : 1 280 pixelsHeight : 720 pixelsDisplay aspect ratio : 16:9Frame rate mode : ConstantFrame rate : 29.970 fpsColor space : YUVChroma subsampling : 4:2:0Bit depth : 8 bitsScan type : ProgressiveBits/(Pixel*Frame) : 0.051Stream size : 45.1 MiB (88%)

AudioID : 2Format : AACFormat/Info : Advanced Audio CodecFormat profile : LCCodec ID : 40Duration : 4mn 30sBit rate mode : VariableBit rate : 192 KbpsMaximum bit rate : 203 KbpsChannel count : 2 channelsChannel positions : Front: L RSampling rate : 44.1 KHzCompression mode : LossyStream size : 6.18 MiB (12%)


Трекер:  [ 08-Фев-2015 20:30 ]

  

Скачать .torrent

Размер .torrent файла 16 KB


Размер: 51 MB
Хэш (hash) релиза: 1d56877867f0accc45a118c5150e5eaf5f3d5513
Подписка на обновления:

Еще никто не оставлял запись к записи скачать торрент Трансформеры: Тайна Конвоя QTF . Будь первым!

!Обратная связь