Скачать через торрент музыку Пятьдесят оттенков серого Fifty Shades of Grey - 2015, FLAC бесплатно без регистрации torrent

Если у вас наблюдаются проблемы со скриншотами, переходом по ссылками, скачиванием торрентов - проблемы в блокировщике рекламы AdBlock. #хорошегоДня!


Статистика раздачи
Размер:  384 MB   |    Зарегистрирован:  2 года 7 месяцев   |    .torrent скачан:  47 раз   |   
Раздают:  1  
   
Загрузка...
 
Автор Сообщение

Galfimbul

avatar Galfimbul


Пятьдесят оттенков серого / Fifty Shades of Grey
Жанр: Soundtrack
Композитор: Danny Elfman
Год выпуска диска: 2015
Производитель диска: EU
Издатель (лейбл): Republic Records
Номер по каталогу: 471 743-9
Аудиокодек: FLAC (*.flac)
Тип рипа: tracks+.cue
Битрейт аудио: lossless
Продолжительность: 01:01:52
Источник: собственный рип
Наличие сканов в содержимом раздачи: нет
01. Annie Lennox / I Put a Spell On You (Fifty Shades of Grey) [0:03:30.39]
02. Laura Welsh / Undiscovered [0:02:53.39]
03. The Weeknd / Earned It (Fifty Shades of Grey) [0:04:10.73]
04. Jessie Ware / Meet Me In the Middle [0:05:08.23]
05. Ellie Goulding / Love Me Like You Do [0:04:10.20]
06. Beyoncé / Haunted (Michael Diamond Remix) [0:05:08.58]
07. Sia / Salted Wound [0:04:30.69]
08. The Rolling Stones / Beast of Burden [0:03:30.11]
09. AWOLNATION / I'm On Fire [0:02:34.27]
10. Beyoncé / Crazy In Love (2014 Remix) [0:03:46.13]
11. Frank Sinatra / Witchcraft [0:02:51.39]
12. Vaults / One Last Night [0:03:19.67]
13. The Weeknd / Where You Belong [0:04:57.58]
14. Skylar Grey / I Know You [0:04:58.66]
15. Danny Elfman / Ana and Christian [0:03:24.33]
16. Danny Elfman / Did That Hurt? [0:02:54.56]
Exact Audio Copy V1.0 beta 3 from 29. August 2011

EAC extraction logfile from 6. February 2015, 13:47

Various Artists / Fifty Shades Of Grey

Used drive : PLEXTOR CD-R PX-230A Adapter: 0 ID: 0

Read mode : SecureUtilize accurate stream : YesDefeat audio cache : YesMake use of C2 pointers : No

Read offset correction : 738Overread into Lead-In and Lead-Out : NoFill up missing offset samples with silence : YesDelete leading and trailing silent blocks : NoNull samples used in CRC calculations : YesUsed interface : Native Win32 interface for Win NT & 2000Gap handling : Appended to previous track

Used output format : User Defined EncoderSelected bitrate : 1024 kBit/sQuality : HighAdd ID3 tag : NoCommand line compressor : C:\Program Files\Exact Audio Copy\Flac\flac.exeAdditional command line options : -6 -V -T "ARTIST=%artist%" -T "TITLE=%title%" -T "ALBUM=%albumtitle%" -T "DATE=%year%"-T "TRACKNUMBER=%tracknr%" -T "GENRE=%genre%" -T "COMMENT=%comment%" -T "ALBUMARTIST=%albuminterpret%" -T "COMPOSER=%composer%"-T "DISCNUMBER=%cdnumber%" -T "TOTALDISCS=%totalcds%" -T "TOTALTRACKS=%numtracks%" %source% -o %dest%

TOC of the extracted CD

Track | Start | Length | Start sector | End sector --------------------------------------------------------- 1 | 0:00.00 | 3:30.39 | 0 | 15788 2 | 3:30.39 | 2:53.39 | 15789 | 28802 3 | 6:24.03 | 4:10.73 | 28803 | 47625 4 | 10:35.01 | 5:08.23 | 47626 | 70748 5 | 15:43.24 | 4:10.20 | 70749 | 89518 6 | 19:53.44 | 5:08.58 | 89519 | 112676 7 | 25:02.27 | 4:30.69 | 112677 | 132995 8 | 29:33.21 | 3:30.11 | 132996 | 148756 9 | 33:03.32 | 2:34.27 | 148757 | 160333 10 | 35:37.59 | 3:46.13 | 160334 | 177296 11 | 39:23.72 | 2:51.39 | 177297 | 190160 12 | 42:15.36 | 3:19.67 | 190161 | 205152 13 | 45:35.28 | 4:57.58 | 205153 | 227485 14 | 50:33.11 | 4:58.66 | 227486 | 249901 15 | 55:32.02 | 3:24.33 | 249902 | 265234 16 | 58:56.35 | 2:54.56 | 265235 | 278340

Track 1

Filename C:\Music\01 - Annie Lennox - I Put a Spell On You (Fifty Shades of Grey).wav

Pre-gap length 0:00:02.00

Peak level 100.0 % Extraction speed 4.5 X Track quality 100.0 % Test CRC BC626AED Copy CRC BC626AED Track not present in AccurateRip database Copy OK

Track 2

Filename C:\Music\02 - Laura Welsh - Undiscovered.wav

Peak level 96.6 % Extraction speed 4.9 X Track quality 100.0 % Test CRC 222293CE Copy CRC 222293CE Track not present in AccurateRip database Copy OK

Track 3

Filename C:\Music\03 - The Weeknd - Earned It (Fifty Shades of Grey).wav

Peak level 97.8 % Extraction speed 4.9 X Track quality 99.9 % Test CRC 49BB70AE Copy CRC 49BB70AE Track not present in AccurateRip database Copy OK

Track 4

Filename C:\Music\04 - Jessie Ware - Meet Me In the Middle.wav

Peak level 98.8 % Extraction speed 4.7 X Track quality 100.0 % Test CRC 52699F53 Copy CRC 52699F53 Track not present in AccurateRip database Copy OK

Track 5

Filename C:\Music\05 - Ellie Goulding - Love Me Like You Do.wav

Peak level 99.8 % Extraction speed 4.9 X Track quality 100.0 % Test CRC 6CC0C76E Copy CRC 6CC0C76E Track not present in AccurateRip database Copy OK

Track 6

Filename C:\Music\06 - Beyoncé - Haunted (Michael Diamond Remix).wav

Peak level 98.9 % Extraction speed 4.9 X Track quality 99.9 % Test CRC 822981CC Copy CRC 822981CC Track not present in AccurateRip database Copy OK

Track 7

Filename C:\Music\07 - Sia - Salted Wound.wav

Peak level 98.8 % Extraction speed 4.1 X Track quality 99.9 % Test CRC 08D1004B Copy CRC 08D1004B Track not present in AccurateRip database Copy OK

Track 8

Filename C:\Music\08 - The Rolling Stones - Beast of Burden.wav

Peak level 97.9 % Extraction speed 3.9 X Track quality 99.9 % Test CRC BAE2B752 Copy CRC BAE2B752 Track not present in AccurateRip database Copy OK

Track 9

Filename C:\Music\09 - AWOLNATION - I'm On Fire.wav

Peak level 99.9 % Extraction speed 4.5 X Track quality 99.9 % Test CRC 90B2E5A3 Copy CRC 90B2E5A3 Track not present in AccurateRip database Copy OK

Track 10

Filename C:\Music\10 - Beyoncé - Crazy In Love (2014 Remix).wav

Peak level 100.0 % Extraction speed 5.5 X Track quality 100.0 % Test CRC 1CF50749 Copy CRC 1CF50749 Track not present in AccurateRip database Copy OK

Track 11

Filename C:\Music\11 - Frank Sinatra - Witchcraft.wav

Peak level 99.9 % Extraction speed 5.3 X Track quality 100.0 % Test CRC A538688D Copy CRC A538688D Track not present in AccurateRip database Copy OK

Track 12

Filename C:\Music\12 - Vaults - One Last Night.wav

Peak level 99.6 % Extraction speed 5.4 X Track quality 100.0 % Test CRC 47CC896F Copy CRC 47CC896F Track not present in AccurateRip database Copy OK

Track 13

Filename C:\Music\13 - The Weeknd - Where You Belong.wav

Peak level 95.2 % Extraction speed 5.1 X Track quality 99.9 % Test CRC 8CD7DB72 Copy CRC 8CD7DB72 Track not present in AccurateRip database Copy OK

Track 14

Filename C:\Music\14 - Skylar Grey - I Know You.wav

Peak level 99.8 % Extraction speed 5.6 X Track quality 100.0 % Test CRC 47E473D6 Copy CRC 47E473D6 Track not present in AccurateRip database Copy OK

Track 15

Filename C:\Music\15 - Danny Elfman - Ana and Christian.wav

Peak level 94.3 % Extraction speed 5.2 X Track quality 100.0 % Test CRC 782331AC Copy CRC 782331AC Track not present in AccurateRip database Copy OK

Track 16

Filename C:\Music\16 - Danny Elfman - Did That Hurt.wav

Peak level 94.3 % Extraction speed 4.7 X Track quality 100.0 % Test CRC D7B491EB Copy CRC D7B491EB Track not present in AccurateRip database Copy OK

None of the tracks are present in the AccurateRip database

No errors occurred

End of status report

==== Log checksum 328F545881295008C3D91708D8490084CE882963F9D5A96FB61B5BEF312691AD ====
REM GENRE SoundtrackREM DATE 2015REM DISCID ED0E7F10REM COMMENT "ExactAudioCopy v1.0b3"PERFORMER "Various Artists"TITLE "Fifty Shades Of Grey"FILE "01 - Annie Lennox - I Put a Spell On You (Fifty Shades of Grey).wav" WAVE TRACK 01 AUDIO TITLE "I Put a Spell On You (Fifty Shades of Grey)" PERFORMER "Annie Lennox" FLAGS DCP INDEX 01 00:00:00FILE "02 - Laura Welsh - Undiscovered.wav" WAVE TRACK 02 AUDIO TITLE "Undiscovered" PERFORMER "Laura Welsh" FLAGS DCP INDEX 01 00:00:00FILE "03 - The Weeknd - Earned It (Fifty Shades of Grey).wav" WAVE TRACK 03 AUDIO TITLE "Earned It (Fifty Shades of Grey)" PERFORMER "The Weeknd" FLAGS DCP INDEX 01 00:00:00FILE "04 - Jessie Ware - Meet Me In the Middle.wav" WAVE TRACK 04 AUDIO TITLE "Meet Me In the Middle" PERFORMER "Jessie Ware" FLAGS DCP INDEX 01 00:00:00FILE "05 - Ellie Goulding - Love Me Like You Do.wav" WAVE TRACK 05 AUDIO TITLE "Love Me Like You Do" PERFORMER "Ellie Goulding" FLAGS DCP INDEX 01 00:00:00FILE "06 - Beyonce - Haunted (Michael Diamond Remix).wav" WAVE TRACK 06 AUDIO TITLE "Haunted (Michael Diamond Remix)" PERFORMER "Beyoncé" FLAGS DCP INDEX 01 00:00:00FILE "07 - Sia - Salted Wound.wav" WAVE TRACK 07 AUDIO TITLE "Salted Wound" PERFORMER "Sia" FLAGS DCP INDEX 01 00:00:00FILE "08 - The Rolling Stones - Beast of Burden.wav" WAVE TRACK 08 AUDIO TITLE "Beast of Burden" PERFORMER "The Rolling Stones" FLAGS DCP INDEX 01 00:00:00FILE "09 - AWOLNATION - I'm On Fire.wav" WAVE TRACK 09 AUDIO TITLE "I'm On Fire" PERFORMER "AWOLNATION" FLAGS DCP INDEX 01 00:00:00FILE "10 - Beyonce - Crazy In Love (2014 Remix).wav" WAVE TRACK 10 AUDIO TITLE "Crazy In Love (2014 Remix)" PERFORMER "Beyoncé" FLAGS DCP INDEX 01 00:00:00FILE "11 - Frank Sinatra - Witchcraft.wav" WAVE TRACK 11 AUDIO TITLE "Witchcraft" PERFORMER "Frank Sinatra" FLAGS DCP INDEX 01 00:00:00FILE "12 - Vaults - One Last Night.wav" WAVE TRACK 12 AUDIO TITLE "One Last Night" PERFORMER "Vaults" FLAGS DCP INDEX 01 00:00:00FILE "13 - The Weeknd - Where You Belong.wav" WAVE TRACK 13 AUDIO TITLE "Where You Belong" PERFORMER "The Weeknd" FLAGS DCP INDEX 01 00:00:00FILE "14 - Skylar Grey - I Know You.wav" WAVE TRACK 14 AUDIO TITLE "I Know You" PERFORMER "Skylar Grey" FLAGS DCP INDEX 01 00:00:00FILE "15 - Danny Elfman - Ana and Christian.wav" WAVE TRACK 15 AUDIO TITLE "Ana and Christian" PERFORMER "Danny Elfman" FLAGS DCP INDEX 01 00:00:00FILE "16 - Danny Elfman - Did That Hurt.wav" WAVE TRACK 16 AUDIO TITLE "Did That Hurt?" PERFORMER "Danny Elfman" FLAGS DCP INDEX 01 00:00:00


Трекер:  [ 06-Фев-2015 20:30 ]

  

Скачать .torrent

Размер .torrent файла 9 KB


Размер: 384 MB
Хэш (hash) релиза: 10341799e49c195342251ffc5d96c052c19abdfa

Торренты, похожие на Пятьдесят оттенков серого Fifty Shades of Grey - 2015, FLAC скачать торрент

Форум Название Автор Размер S L Добавлен
Саундтреки к фильмам и мультфильмам (lossless) ·· (Soundtrack) Пятьдесят оттенков серого / Fifty Shades of Grey (Remixed) - 2015, FLAC (tracks+.cue), lossless Galfimbul 256704089245 MB 0 0 1435174108

22:28

24-Июн-15

Саундтреки к фильмам и мультфильмам (lossless) ·· (Soundtrack) Пятьдесят оттенков серого / Fifty Shades of Grey (Ellie Goulding, Single-CD) - 2015, FLAC (tracks+.cue), lossless Galfimbul 5785320855 MB 0 0 1425667632

21:47

6-Мар-15

Саундтреки к фильмам и мультфильмам (lossless) ·· (Soundtrack) Пятьдесят оттенков серого / Fifty Shades of Grey (Target Deluxe Edition) - 2015, FLAC (tracks+.cue), lossless Galfimbul 581840555555 MB 0 0 1424716218

21:30

23-Фев-15

Саундтреки к фильмам и мультфильмам (lossless) ·· (Score) Пятьдесят оттенков серого / Fifty Shades of Grey (by Danny Elfman) - 2015, FLAC (tracks+.cue), lossless Galfimbul 334072855319 MB 0 0 1424550373

23:26

21-Фев-15

Саундтреки к фильмам и мультфильмам (lossless) ·· (Soundtrack) Пятьдесят оттенков серого / Fifty Shades of Grey (Target Deluxe Edition) - 2015, FLAC (tracks), lossless Galfimbul 447299849427 MB 0 0 1423656207

15:03

11-Фев-15

Еще никто не оставлял запись к записи скачать торрент Пятьдесят оттенков серого Fifty Shades of Grey - 2015, FLAC . Будь первым!

!Обратная связь