Скачать через торрент музыку Дракула Dracula Untold бесплатно без регистрации torrent

Если у вас наблюдаются проблемы со скриншотами, переходом по ссылками, скачиванием торрентов - проблемы в блокировщике рекламы AdBlock. #хорошегоДня!


Статистика раздачи
Размер:  275 MB   |    Зарегистрирован:  2 года 7 месяцев   |    .torrent скачан:  43 раза   |   
Раздают:  1  
   
Загрузка...
 
Автор Сообщение

Galfimbul

avatar Galfimbul


Дракула / Dracula Untold


Жанр: Score || Композитор: Ramin Djawadi || Год выпуска диска: 2014 || Страна-производитель диска: США || Аудио кодек: FLAC (*.flac) || Тип рипа: image+.cue || Битрейт аудио: lossless || Продолжительность: 01:00:16 || Источник: trepcisko || Наличие сканов в содержимом раздачи: нет
Треклист:
01. Prologue [02:27]
02. Dracula Untold [02:14]
03. Mirena [02:41]
04. Sultan Mehmed [02:46]
05. The Handover [02:28]
06. Eternal Love [02:28]
07. Janissary Attack [02:18]
08. Broken Tooth [05:31]
09. Hand o' Bats, Pt. 1 [02:43]
10. Hand o' Bats, Pt. 2 [02:14]
11. This Life and the Next [03:10]
12. Son of the Dragon [02:21]
13. The Brood [02:21]
14. Three Days [01:41]
15. Son of the Devil [04:27]
16. Lord Impaler [03:46]
17. Vlad Vs. 1000 [01:50]
18. The Silver Tent [04:46]
19. I Will Come Again [04:45]
20. Epilogue [03:20]
Exact Audio Copy V1.0 beta 3 from 29. August 2011

EAC extraction logfile from 2. February 2015, 6:40

Ramin Djawadi / Dracula Untold

Used drive : hp DVD A DS8A8SH Adapter: 0 ID: 1

Read mode : SecureUtilize accurate stream : YesDefeat audio cache : YesMake use of C2 pointers : No

Read offset correction : 6Overread into Lead-In and Lead-Out : NoFill up missing offset samples with silence : YesDelete leading and trailing silent blocks : NoNull samples used in CRC calculations : YesUsed interface : Native Win32 interface for Win NT & 2000

Used output format : Internal WAV RoutinesSample format : 44.100 Hz; 16 Bit; Stereo

TOC of the extracted CD

Track | Start | Length | Start sector | End sector --------------------------------------------------------- 1 | 0:00.00 | 2:26.70 | 0 | 11019 2 | 2:26.70 | 2:13.61 | 11020 | 21055 3 | 4:40.56 | 2:40.46 | 21056 | 33101 4 | 7:21.27 | 2:46.16 | 33102 | 45567 5 | 10:07.43 | 2:27.51 | 45568 | 56643 6 | 12:35.19 | 2:28.16 | 56644 | 67759 7 | 15:03.35 | 2:17.67 | 67760 | 78101 8 | 17:21.27 | 5:31.10 | 78102 | 102936 9 | 22:52.37 | 2:43.25 | 102937 | 115186 10 | 25:35.62 | 2:14.24 | 115187 | 125260 11 | 27:50.11 | 3:10.14 | 125261 | 139524 12 | 31:00.25 | 2:20.59 | 139525 | 150083 13 | 33:21.09 | 2:20.53 | 150084 | 160636 14 | 35:41.62 | 1:41.34 | 160637 | 168245 15 | 37:23.21 | 4:26.45 | 168246 | 188240 16 | 41:49.66 | 3:45.54 | 188241 | 205169 17 | 45:35.45 | 1:50.21 | 205170 | 213440 18 | 47:25.66 | 4:45.49 | 213441 | 234864 19 | 52:11.40 | 4:45.25 | 234865 | 256264 20 | 56:56.65 | 3:19.38 | 256265 | 271227

Range status and errors

Selected range

Filename C:\_\Media\Music\.ripped\Ramin Djawadi - Dracula Untold.wav

Peak level 98.8 % Extraction speed 3.1 X Range quality 100.0 % Test CRC 9E820310 Copy CRC 9E820310 Copy OK

No errors occurred

AccurateRip summary

Track 1 accurately ripped (confidence 1) [871E0584] (AR v2)Track 2 accurately ripped (confidence 1) [3A65C2C9] (AR v2)Track 3 accurately ripped (confidence 1) [B1824591] (AR v2)Track 4 accurately ripped (confidence 1) [B5FDC9A2] (AR v2)Track 5 accurately ripped (confidence 1) [7327FB05] (AR v2)Track 6 accurately ripped (confidence 1) [A4E21D26] (AR v2)Track 7 accurately ripped (confidence 1) [76706E82] (AR v2)Track 8 accurately ripped (confidence 1) [966DC39D] (AR v2)Track 9 accurately ripped (confidence 1) [38A437D2] (AR v2)Track 10 accurately ripped (confidence 1) [1CA0E920] (AR v2)Track 11 accurately ripped (confidence 1) [726132AB] (AR v2)Track 12 accurately ripped (confidence 1) [2A16DB59] (AR v2)Track 13 accurately ripped (confidence 1) [B1221794] (AR v2)Track 14 accurately ripped (confidence 1) [8921625A] (AR v2)Track 15 accurately ripped (confidence 1) [9325B22F] (AR v2)Track 16 accurately ripped (confidence 1) [C8ED98E5] (AR v2)Track 17 accurately ripped (confidence 1) [7BF50AE9] (AR v2)Track 18 accurately ripped (confidence 1) [DD56035E] (AR v2)Track 19 accurately ripped (confidence 1) [8A99C316] (AR v2)Track 20 accurately ripped (confidence 1) [E727C954] (AR v2)

All tracks accurately ripped

End of status report

---- CUETools DB Plugin V2.1.3

[CTDB TOCID: LV6M2TzJO.6OyX_5XhVNVxsfZFs-] found, Submit result: LV6M2TzJO.6OyX_5XhVNVxsfZFs- has been confirmed[23a26a26] (1/1) Accurately ripped
REM GENRE SoundtrackREM DATE 2014REM DISCID 060E2014REM COMMENT "ExactAudioCopy v1.0b3"PERFORMER "Ramin Djawadi"TITLE "Dracula Untold"FILE "Ramin Djawadi - Dracula Untold.flac" WAVE TRACK 01 AUDIO TITLE "Prologue" PERFORMER "Ramin Djawadi" INDEX 01 00:00:00 TRACK 02 AUDIO TITLE "Dracula Untold" PERFORMER "Ramin Djawadi" INDEX 01 02:26:70 TRACK 03 AUDIO TITLE "Mirena" PERFORMER "Ramin Djawadi" INDEX 01 04:40:56 TRACK 04 AUDIO TITLE "Sultan Mehmed" PERFORMER "Ramin Djawadi" INDEX 01 07:21:27 TRACK 05 AUDIO TITLE "The Handover" PERFORMER "Ramin Djawadi" INDEX 01 10:07:43 TRACK 06 AUDIO TITLE "Eternal Love" PERFORMER "Ramin Djawadi" INDEX 01 12:35:19 TRACK 07 AUDIO TITLE "Janissary Attack" PERFORMER "Ramin Djawadi" INDEX 01 15:03:35 TRACK 08 AUDIO TITLE "Broken Tooth" PERFORMER "Ramin Djawadi" INDEX 01 17:21:27 TRACK 09 AUDIO TITLE "Hand O' Bats, Pt. 1" PERFORMER "Ramin Djawadi" INDEX 01 22:52:37 TRACK 10 AUDIO TITLE "Hand O' Bats, Pt. 2" PERFORMER "Ramin Djawadi" INDEX 01 25:35:62 TRACK 11 AUDIO TITLE "This Life And The Next" PERFORMER "Ramin Djawadi" INDEX 01 27:50:11 TRACK 12 AUDIO TITLE "Son Of The Dragon" PERFORMER "Ramin Djawadi" INDEX 01 31:00:25 TRACK 13 AUDIO TITLE "The Brood" PERFORMER "Ramin Djawadi" INDEX 01 33:21:09 TRACK 14 AUDIO TITLE "Three Days" PERFORMER "Ramin Djawadi" INDEX 01 35:41:62 TRACK 15 AUDIO TITLE "Son Of The Devil" PERFORMER "Ramin Djawadi" INDEX 01 37:23:21 TRACK 16 AUDIO TITLE "Lord Impaler" PERFORMER "Ramin Djawadi" INDEX 01 41:49:66 TRACK 17 AUDIO TITLE "Vlad Vs. 1000" PERFORMER "Ramin Djawadi" INDEX 01 45:35:45 TRACK 18 AUDIO TITLE "The Silver Tent" PERFORMER "Ramin Djawadi" INDEX 01 47:25:66 TRACK 19 AUDIO TITLE "I Will Come Again" PERFORMER "Ramin Djawadi" INDEX 01 52:11:40 TRACK 20 AUDIO TITLE "Epilogue" PERFORMER "Ramin Djawadi" INDEX 01 56:56:65

MP3: [url=...4848363](Score) Дракула / Dracula Untold (by Ramin Djawadi) - 2014, MP3, 320 kbps[/url]


Трекер:  [ 04-Фев-2015 12:30 ]

  

Скачать .torrent

Размер .torrent файла 11 KB


Размер: 275 MB
Хэш (hash) релиза: 88ca8bbb1f6dc8726ac2c37521b27ca0186eae31

Еще никто не оставлял запись к записи скачать торрент Дракула Dracula Untold . Будь первым!

!Обратная связь