Скачать через торрент музыку Сталинград Stalingrad бесплатно без регистрации torrent

Если у вас наблюдаются проблемы со скриншотами, переходом по ссылками, скачиванием торрентов - проблемы в блокировщике рекламы AdBlock. #хорошегоДня!


Статистика раздачи
Размер:  285 MB   |    Зарегистрирован:  2 года 7 месяцев   |    .torrent скачан:  39 раз   |   
Раздают:  1  
   
Загрузка...
 
Автор Сообщение

Galfimbul

avatar Galfimbul


Сталинград / Stalingrad
Жанр: Score
Композитор: Angelo Badalamenti
Год выпуска диска: 2014
Год выпуска фильма: 2013
Производитель диска: TAKT, Poland
Издатель (лейбл): MovieScore Media / Kronos Records
Номер по каталогу: MMS14001 / KRONCD036
Аудиокодек: FLAC (*.flac)
Тип рипа: tracks+.cue
Битрейт аудио: lossless
Продолжительность: 00:52:44
Источник: собственный рип
Наличие сканов в содержимом раздачи: да, 600dpi
Ссылки: Кинопоиск | IMDB | Wikipedia | SoundtrackCollector
MP3: [url=...4659800](Score) Сталинград / Stalingrad (Angelo Badalamenti) - 2014 (2013), MP3, 320 kbps[/url]
01. Stalingrad Theme (featuring Anna Netrebko) [0:03:44.03]
02. Stalingrad Overture (Universal Theme) [0:03:18.13]
03. Desperate Search for Masha [0:02:28.03]
04. Kahn's Theme [0:03:20.11]
05. Katya's Theme [0:03:36.06]
06. Men of Fire [0:02:20.05]
07. Execution and Attack [0:06:37.58]
08. Sergei's Triumph [0:01:44.00]
09. Russian Ambush [0:02:00.05]
10. The Rules of Warfare [0:02:01.17]
11. Lovers Steal Away [0:01:57.44]
12. The Panzer Attack [0:02:00.05]
13. Masha and Kann [0:01:58.08]
14. Tragic Killing [0:02:44.74]
15. Childhood Memories (Katya's Theme Reprise) [0:02:55.06]
16. Goodbye Brothers-Stalingrad Finale [0:03:14.67]
17. Legenda (featuring Zemfira) [0:03:24.12]
18. Stalingrad Theme for String Orchestra [0:03:20.16]
Exact Audio Copy V1.0 beta 3 from 29. August 2011

EAC extraction logfile from 30. January 2015, 10:31

Angelo Badalamenti / Stalingrad

Used drive : PLEXTOR CD-R PX-230A Adapter: 2 ID: 0

Read mode : SecureUtilize accurate stream : YesDefeat audio cache : YesMake use of C2 pointers : No

Read offset correction : 738Overread into Lead-In and Lead-Out : NoFill up missing offset samples with silence : YesDelete leading and trailing silent blocks : NoNull samples used in CRC calculations : YesUsed interface : Native Win32 interface for Win NT & 2000Gap handling : Appended to previous track

Used output format : User Defined EncoderSelected bitrate : 768 kBit/sQuality : HighAdd ID3 tag : NoCommand line compressor : C:\Program Files (x86)\Exact Audio Copy\FLAC\FLAC.EXEAdditional command line options : -6 -V -T "ARTIST=%artist%" -T "TITLE=%title%" -T "ALBUM=%albumtitle%" -T "DATE=%year%"-T "TRACKNUMBER=%tracknr%" -T "GENRE=%genre%" -T "COMMENT=%comment%" -T "ALBUMARTIST=%albuminterpret%" -T "COMPOSER=%composer%"-T "DISCNUMBER=%cdnumber%" -T "TOTALDISCS=%totalcds%" -T "TOTALTRACKS=%numtracks%" %source% -o %dest%

TOC of the extracted CD

Track | Start | Length | Start sector | End sector --------------------------------------------------------- 1 | 0:00.00 | 3:44.03 | 0 | 16802 2 | 3:44.03 | 3:18.13 | 16803 | 31665 3 | 7:02.16 | 2:28.03 | 31666 | 42768 4 | 9:30.19 | 3:20.11 | 42769 | 57779 5 | 12:50.30 | 3:36.06 | 57780 | 73985 6 | 16:26.36 | 2:20.05 | 73986 | 84490 7 | 18:46.41 | 6:37.58 | 84491 | 114323 8 | 25:24.24 | 1:44.00 | 114324 | 122123 9 | 27:08.24 | 2:00.05 | 122124 | 131128 10 | 29:08.29 | 2:01.17 | 131129 | 140220 11 | 31:09.46 | 1:57.44 | 140221 | 149039 12 | 33:07.15 | 2:00.05 | 149040 | 158044 13 | 35:07.20 | 1:58.08 | 158045 | 166902 14 | 37:05.28 | 2:44.74 | 166903 | 179276 15 | 39:50.27 | 2:55.06 | 179277 | 192407 16 | 42:45.33 | 3:14.67 | 192408 | 207024 17 | 46:00.25 | 3:24.12 | 207025 | 222336 18 | 49:24.37 | 3:20.16 | 222337 | 237352

Track 1

Filename C:\Music\01 - Angelo Badalamenti - Stalingrad Theme (featuring Anna Netrebko).wav

Pre-gap length 0:00:02.00

Peak level 89.4 % Extraction speed 5.2 X Track quality 100.0 % Test CRC BF64544C Copy CRC BF64544C Accurately ripped (confidence 2) [0C52BF7F] (AR v2) Copy OK

Track 2

Filename C:\Music\02 - Angelo Badalamenti - Stalingrad Overture (Universal Theme).wav

Peak level 76.2 % Extraction speed 4.5 X Track quality 99.9 % Test CRC B5ABD0A0 Copy CRC B5ABD0A0 Accurately ripped (confidence 2) [0CD6E72E] (AR v2) Copy OK

Track 3

Filename C:\Music\03 - Angelo Badalamenti - Desperate Search for Masha.wav

Peak level 94.1 % Extraction speed 4.1 X Track quality 99.9 % Test CRC 1F6B3716 Copy CRC 1F6B3716 Accurately ripped (confidence 2) [8F87BCB7] (AR v2) Copy OK

Track 4

Filename C:\Music\04 - Angelo Badalamenti - Kahn's Theme.wav

Peak level 100.0 % Extraction speed 4.6 X Track quality 99.9 % Test CRC F9ADD7A2 Copy CRC F9ADD7A2 Accurately ripped (confidence 2) [BA795F7B] (AR v2) Copy OK

Track 5

Filename C:\Music\05 - Angelo Badalamenti - Katya's Theme.wav

Peak level 74.0 % Extraction speed 5.3 X Track quality 100.0 % Test CRC DCD311CA Copy CRC DCD311CA Accurately ripped (confidence 2) [8B3B8B20] (AR v2) Copy OK

Track 6

Filename C:\Music\06 - Angelo Badalamenti - Men of Fire.wav

Peak level 100.0 % Extraction speed 4.1 X Track quality 99.9 % Test CRC FEF01B3C Copy CRC FEF01B3C Accurately ripped (confidence 2) [2F051BB5] (AR v2) Copy OK

Track 7

Filename C:\Music\07 - Angelo Badalamenti - Execution and Attack.wav

Peak level 100.0 % Extraction speed 5.6 X Track quality 100.0 % Test CRC 24FD320C Copy CRC 24FD320C Accurately ripped (confidence 2) [58036F72] (AR v2) Copy OK

Track 8

Filename C:\Music\08 - Angelo Badalamenti - Sergei's Triumph.wav

Peak level 91.8 % Extraction speed 4.5 X Track quality 100.0 % Test CRC 72BA7B73 Copy CRC 72BA7B73 Accurately ripped (confidence 2) [C669DA66] (AR v2) Copy OK

Track 9

Filename C:\Music\09 - Angelo Badalamenti - Russian Ambush.wav

Peak level 63.9 % Extraction speed 4.7 X Track quality 100.0 % Test CRC 4EE35B39 Copy CRC 4EE35B39 Accurately ripped (confidence 2) [2787F7C2] (AR v2) Copy OK

Track 10

Filename C:\Music\10 - Angelo Badalamenti - The Rules of Warfare.wav

Peak level 88.2 % Extraction speed 4.7 X Track quality 100.0 % Test CRC EF98A4E0 Copy CRC EF98A4E0 Accurately ripped (confidence 2) [50283F11] (AR v2) Copy OK

Track 11

Filename C:\Music\11 - Angelo Badalamenti - Lovers Steal Away.wav

Peak level 59.3 % Extraction speed 3.4 X Track quality 100.0 % Test CRC E2447A30 Copy CRC E2447A30 Accurately ripped (confidence 2) [178666B7] (AR v2) Copy OK

Track 12

Filename C:\Music\12 - Angelo Badalamenti - The Panzer Attack.wav

Peak level 86.0 % Extraction speed 4.7 X Track quality 100.0 % Test CRC 7AF642C7 Copy CRC 7AF642C7 Accurately ripped (confidence 2) [E062E9D0] (AR v2) Copy OK

Track 13

Filename C:\Music\13 - Angelo Badalamenti - Masha and Kann.wav

Peak level 67.6 % Extraction speed 4.6 X Track quality 100.0 % Test CRC FC7CE4B7 Copy CRC FC7CE4B7 Accurately ripped (confidence 2) [DE0EA1ED] (AR v2) Copy OK

Track 14

Filename C:\Music\14 - Angelo Badalamenti - Tragic Killing.wav

Peak level 99.0 % Extraction speed 4.2 X Track quality 99.9 % Test CRC AD7B2752 Copy CRC AD7B2752 Accurately ripped (confidence 2) [C0E93FD4] (AR v2) Copy OK

Track 15

Filename C:\Music\15 - Angelo Badalamenti - Childhood Memories (Katya's Theme Reprise).wav

Peak level 46.6 % Extraction speed 5.0 X Track quality 100.0 % Test CRC A3B6BF18 Copy CRC A3B6BF18 Accurately ripped (confidence 2) [55C7EBA7] (AR v2) Copy OK

Track 16

Filename C:\Music\16 - Angelo Badalamenti - Goodbye Brothers-Stalingrad Finale.wav

Peak level 100.0 % Extraction speed 4.4 X Track quality 99.9 % Test CRC 1D51CF9B Copy CRC 1D51CF9B Accurately ripped (confidence 2) [516F380B] (AR v2) Copy OK

Track 17

Filename C:\Music\17 - Angelo Badalamenti - Legenda (featuring Zemfira).wav

Peak level 90.1 % Extraction speed 4.4 X Track quality 99.9 % Test CRC A023DA65 Copy CRC A023DA65 Accurately ripped (confidence 2) [D05233F8] (AR v2) Copy OK

Track 18

Filename C:\Music\18 - Angelo Badalamenti - Stalingrad Theme for String Orchestra.wav

Peak level 88.3 % Extraction speed 4.3 X Track quality 99.9 % Test CRC 2864E3A6 Copy CRC 2864E3A6 Accurately ripped (confidence 2) [28C9F84A] (AR v2) Copy OK

All tracks accurately ripped

No errors occurred

End of status report

==== Log checksum 15B02273C672B3A0DC04D0E40F5A74F5D6E2E1CF5A708AE2A155548D27C75C98 ====
REM GENRE SoundtrackREM DATE 2013REM DISCID 100C5C12REM COMMENT "ExactAudioCopy v1.0b3"PERFORMER "Angelo Badalamenti"TITLE "Stalingrad"FILE "01 - Angelo Badalamenti - Stalingrad Theme (featuring Anna Netrebko).wav" WAVE TRACK 01 AUDIO TITLE "Stalingrad Theme (featuring Anna Netrebko)" PERFORMER "Angelo Badalamenti" INDEX 01 00:00:00FILE "02 - Angelo Badalamenti - Stalingrad Overture (Universal Theme).wav" WAVE TRACK 02 AUDIO TITLE "Stalingrad Overture (Universal Theme)" PERFORMER "Angelo Badalamenti" INDEX 01 00:00:00FILE "03 - Angelo Badalamenti - Desperate Search for Masha.wav" WAVE TRACK 03 AUDIO TITLE "Desperate Search for Masha" PERFORMER "Angelo Badalamenti" INDEX 01 00:00:00FILE "04 - Angelo Badalamenti - Kahn's Theme.wav" WAVE TRACK 04 AUDIO TITLE "Kahn's Theme" PERFORMER "Angelo Badalamenti" INDEX 01 00:00:00FILE "05 - Angelo Badalamenti - Katya's Theme.wav" WAVE TRACK 05 AUDIO TITLE "Katya's Theme" PERFORMER "Angelo Badalamenti" INDEX 01 00:00:00FILE "06 - Angelo Badalamenti - Men of Fire.wav" WAVE TRACK 06 AUDIO TITLE "Men of Fire" PERFORMER "Angelo Badalamenti" INDEX 01 00:00:00FILE "07 - Angelo Badalamenti - Execution and Attack.wav" WAVE TRACK 07 AUDIO TITLE "Execution and Attack" PERFORMER "Angelo Badalamenti" INDEX 01 00:00:00FILE "08 - Angelo Badalamenti - Sergei's Triumph.wav" WAVE TRACK 08 AUDIO TITLE "Sergei's Triumph" PERFORMER "Angelo Badalamenti" INDEX 01 00:00:00FILE "09 - Angelo Badalamenti - Russian Ambush.wav" WAVE TRACK 09 AUDIO TITLE "Russian Ambush" PERFORMER "Angelo Badalamenti" INDEX 01 00:00:00FILE "10 - Angelo Badalamenti - The Rules of Warfare.wav" WAVE TRACK 10 AUDIO TITLE "The Rules of Warfare" PERFORMER "Angelo Badalamenti" INDEX 01 00:00:00FILE "11 - Angelo Badalamenti - Lovers Steal Away.wav" WAVE TRACK 11 AUDIO TITLE "Lovers Steal Away" PERFORMER "Angelo Badalamenti" INDEX 01 00:00:00FILE "12 - Angelo Badalamenti - The Panzer Attack.wav" WAVE TRACK 12 AUDIO TITLE "The Panzer Attack" PERFORMER "Angelo Badalamenti" INDEX 01 00:00:00FILE "13 - Angelo Badalamenti - Masha and Kann.wav" WAVE TRACK 13 AUDIO TITLE "Masha and Kann" PERFORMER "Angelo Badalamenti" INDEX 01 00:00:00FILE "14 - Angelo Badalamenti - Tragic Killing.wav" WAVE TRACK 14 AUDIO TITLE "Tragic Killing" PERFORMER "Angelo Badalamenti" INDEX 01 00:00:00FILE "15 - Angelo Badalamenti - Childhood Memories (Katya's Theme Reprise).wav" WAVE TRACK 15 AUDIO TITLE "Childhood Memories (Katya's Theme Reprise)" PERFORMER "Angelo Badalamenti" INDEX 01 00:00:00FILE "16 - Angelo Badalamenti - Goodbye Brothers-Stalingrad Finale.wav" WAVE TRACK 16 AUDIO TITLE "Goodbye Brothers-Stalingrad Finale" PERFORMER "Angelo Badalamenti" INDEX 01 00:00:00FILE "17 - Angelo Badalamenti - Legenda (featuring Zemfira).wav" WAVE TRACK 17 AUDIO TITLE "Legenda (featuring Zemfira)" PERFORMER "Angelo Badalamenti" INDEX 01 00:00:00FILE "18 - Angelo Badalamenti - Stalingrad Theme for String Orchestra.wav" WAVE TRACK 18 AUDIO TITLE "Stalingrad Theme for String Orchestra" PERFORMER "Angelo Badalamenti" INDEX 01 00:00:00


Трекер:  [ 02-Фев-2015 22:30 ]

  

Скачать .torrent

Размер .torrent файла 24 KB


Размер: 285 MB
Хэш (hash) релиза: ea551953248f43215e81eb962fcce2c064daeffc

Еще никто не оставлял запись к записи скачать торрент Сталинград Stalingrad . Будь первым!

!Обратная связь