Скачать через торрент Класс убийц Ansatsu Kyoushits бесплатно Аниме Все серии на русском torrent

Если у вас наблюдаются проблемы со скриншотами, переходом по ссылками, скачиванием торрентов - проблемы в блокировщике рекламы AdBlock. #хорошегоДня!


Статистика раздачи
Размер:  825 MB   |    Зарегистрирован:  2 года 8 месяцев   |    .torrent скачан:  28 раз   |   
Раздают:  1  
   
Загрузка...
 
Автор Сообщение

Galfimbul

avatar Galfimbul


Класс убийц / Ansatsu Kyoushitsu
Страна: Япония
Год выпуска: 2015 г.
Тип: TV
Жанр: Комедия
Продолжительность: 22 эп. по 25 мин
Русские субтитры: Animedia
Перевод: MAD Naamah
Редактура и оформление: Nyam Maro
Русские субтитры: YakuSub Studio
Переводчик: DoruDoll
Оформление: licuma
Редактор: Nagi
Тайм-код/Перевод песен: Nika_Elrik

Режиссер: Киси Сэйдзи

Студия:

Описание: Осьминогоподобное существо, позднее получившее имя Коро взорвало Луну и уничтожило 70 % от нее. Теперь на небе всегда полумесяц. Также Коро обещает что через год взорвет и Землю. Что либо сделать с ним не представляется возможным так как от атак он уходит на скорости в двадцать махов, стандартное оружие против него не эффективно и кроме того, он крайне быстро регенерирует. Однако, Коро предлагает сделку — вместо того что бы сбегать, оно станет учителем в школе Кунугигаока и до уничтожения Земли не будет вредить ученикам. Ученики в свою очередь получат соответствующее оружие и могут сколько угодно пытаться убить своего учителя. Если им это удастся то Земля будет спасена, а спаситель планеты получит награду в десять миллиардов иен.
В ученики себе Коро берет класс неудачников выгнанных с нормального обучения, всеми презираемых и используемых как пугало дабы стимулировать остальных учеников учиться активнее. Хотя Коро и утверждает что стал их мишенью лишь потому что так было интереснее, он начинает менять своих учеников так, что бы они смогли преодолеть дискриминацию со стороны остальной школы.

Качество: HDTVRip | Равка: Leopard-Raws Формат: mp4 | Тип Видео: без хардсаба
Видео кодек: AVC
Видео: AVC, 8 bits, 1280x720, 2186 kbps, 23.976 fps, (16:9)
RUS - AAC, 192 kbps, 48.0 KHz, 2 ch Язык Русский (внешним файлом) двухголосый (м+ж), Shina и FruKt
JP - AAC, 192 kbps, 48.0 KHz, 2 ch Язык Японский
01. Время убивать
02. Современная литература
Общее
Полное имя : D:\[Leopard-Raws]\[Leopard-Raws] Ansatsu Kyoushitsu\[Leopard-Raws] Ansatsu Kyoushitsu - 01 RAW (CX 1280x720 x264 AAC).mp4
Формат : MPEG-4
Профиль формата : Base Media
Идентификатор кодека : isom
Размер файла : 392 Мбайт
Продолжительность : 22 м.
Режим общего битрейта : Переменный
Общий поток : 2380 Кбит/сек
Дата кодирования : UTC 2015-01-10 14:15:12
Дата пометки : UTC 2015-01-10 14:15:12

Видео
Идентификатор : 1
Формат : AVC
Формат/Информация : Advanced Video Codec
Профиль формата : High@L4.1
Параметр CABAC формата : Да
Параметр ReFrames формата : 4 кадра
Идентификатор кодека : avc1
Идентификатор кодека/Информация : Advanced Video Coding
Продолжительность : 22 м.
Битрейт : 2186 Кбит/сек
Максимальный битрейт : 18,6 Мбит/сек
Ширина : 1280 пикселей
Высота : 720 пикселей
Соотношение сторон : 16:9
Режим частоты кадров : Постоянный
Частота кадров : 23,976 кадра/сек
Цветовое пространство : YUV
Субдискретизация насыщенности : 4:2:0
Битовая глубина : 8 бит
Тип развёртки : Прогрессивная
Бит/(Пиксели*Кадры) : 0.099
Размер потока : 360 Мбайт (92%)
Заголовок : 264:fps=23.976@GPAC0.5.1-DEV-rev4929
Библиотека кодирования : x264 core 129 r2245+729M 1a52e03
Настройки программы : cabac=1 / ref=4 / deblock=1:1:-1 / analyse=0x3:0x113 / me=umh / subme=9 / psy=1 / fade_compensate=0.00 / psy_rd=1.00:0.00 / mixed_ref=1 / me_range=24 / chroma_me=1 / trellis=2 / 8x8dct=1 / cqm=0 / deadzone=21,11 / fast_pskip=1 / chroma_qp_offset=-2 / threads=8 / lookahead_threads=1 / sliced_threads=0 / nr=0 / decimate=1 / interlaced=0 / bluray_compat=0 / constrained_intra=0 / fgo=0 / bframes=9 / b_pyramid=2 / b_adapt=2 / b_bias=0 / direct=1 / weightb=1 / open_gop=0 / weightp=2 / keyint=240 / keyint_min=24 / scenecut=40 / intra_refresh=0 / rc=crf / mbtree=0 / crf=18.5 / qcomp=0.72 / qpmin=0 / qpmax=69 / qpstep=4 / ip_ratio=1.40 / pb_ratio=1.30 / aq=1:0.85
Дата кодирования : UTC 2015-01-10 14:15:12
Дата пометки : UTC 2015-01-10 14:15:16
Основные цвета : BT.709
Характеристики трансфера : BT.709
Коэффициенты матрицы : BT.709

Аудио
Идентификатор : 2
Формат : AAC
Формат/Информация : Advanced Audio Codec
Профиль формата : LC
Идентификатор кодека : 40
Продолжительность : 22 м.
Вид битрейта : Переменный
Битрейт : 192 Кбит/сек
Максимальный битрейт : 233 Кбит/сек
Каналы : 2 канала
Расположение каналов : Front: L R
Частота : 48,0 КГц
Метод сжатия : С потерями
Размер потока : 31,4 Мбайт (8%)
Язык : Japanese
Дата кодирования : UTC 2015-01-10 07:14:12
Дата пометки : UTC 2015-01-10 14:15:16


Обновите торерт файл, добавлена 2я серия

Трекер:  [ 19-Янв-2015 15:30 ]

  

Скачать .torrent

Размер .torrent файла 17 KB


Размер: 825 MB
Хэш (hash) релиза: c3c2db53b32cf993fe6e855ba339c061b56a2c1b
Подписка на обновления:

Еще никто не оставлял запись к записи скачать торрент Класс убийц Ansatsu Kyoushits . Будь первым!

!Обратная связь