Скачать через торрент музыку Бёрдмэн Birdman бесплатно без регистрации torrent

Если у вас наблюдаются проблемы со скриншотами, переходом по ссылками, скачиванием торрентов - проблемы в блокировщике рекламы AdBlock. #хорошегоДня!


Статистика раздачи
Размер:  358 MB   |    Зарегистрирован:  2 года 8 месяцев   |    .torrent скачан:  44 раза   |   
Раздают:  1  
   
Загрузка...
 
Автор Сообщение

Galfimbul

avatar Galfimbul


Бёрдмэн / Birdman

Жанр: Score
Композитор: Antonio Sanchez
Год выпуска диска: 2014
Страна-производитель диска: USA
Аудиокодек: FLAC (*.flac)
Тип рипа: tracks
Битрейт аудио: lossless
Продолжительность: 01:18:10
Источник: ffshrine.org
Наличие сканов в содержимом раздачи: Digital Booklet
Треклист:
1. Get Ready [01:28]
2. Dirty Walk [01:34]
3. Just Chatting [00:34]
4. Waiting For What [01:36]
5. Semi Comfortable In 3 [01:08]
6. Strut, Pt. 1 [01:16]
7. Doors and Distance [02:18]
8. Night Chatter [01:57]
9. Almost Human [01:23]
10. Schizo [01:51]
11. Internal War [02:51]
12. Kinda Messy [00:34]
13. Strut, Pt. 2 [01:20]
14. Claustrophobia [01:10]
15. Fire Trail [00:48]
16. The Anxious Battle for Sanity [06:38]
17. Symphony No. 9 in D - 1st Movement: Andante Comodo - The Polish National Radio Symphony Orchestra [05:35]
18. Symphony No. 5 Op. 64 in E Minor: Andante Cantabile - Stefano Seghedoni [12:50]
19. Ich Bin Der Welt Abhanden Gekommen - Pierre Boulez, Violeta Urmana & Wiener Philharmoniker [07:02]
20. Passacaille (Tres Large) - Beaux Arts Trio [07:23]
21. Prologue: Chorus of Exiled Palestinians - Kent Nagano, The London Opera Chorus & The Opera De Lyon [08:34]
22. Symphony No. 2 in E Minor, Op. 27 - II Allegro Molto - The Stuttgart Radio Symphony Orchestra [07:20]
Exact Audio Copy V1.0 beta 3 from 29. August 2011

EAC extraction logfile from 6. January 2015, 17:42

Antonio Sanchez / Birdman

Used drive : MATSHITADVD-RAM UJ8A2AS Adapter: 0 ID: 1

Read mode : Secure
Utilize accurate stream : Yes
Defeat audio cache : Yes
Make use of C2 pointers : No

Read offset correction : 102
Overread into Lead-In and Lead-Out : No
Fill up missing offset samples with silence : Yes
Delete leading and trailing silent blocks : No
Null samples used in CRC calculations : Yes
Used interface : Native Win32 interface for Win NT & 2000
Gap handling : Appended to previous track

Used output format : User Defined Encoder
Selected bitrate : 1024 kBit/s
Quality : High
Add ID3 tag : No
Command line compressor : C:\Program Files (x86)\Exact Audio Copy\Flac\flac.exe
Additional command line options : -8 -V -T "artist=%artist%" -T "title=%title%" -T "album=%albumtitle%" -T "date=%year%" -T "tracknumber=%tracknr%" -T "genre=%genre%" %source%

TOC of the extracted CD

Track | Start | Length | Start sector | End sector
---------------------------------------------------------
1 | 0:00.00 | 1:30.51 | 0 | 6800
2 | 1:30.51 | 1:36.43 | 6801 | 14043
3 | 3:07.19 | 0:36.47 | 14044 | 16790
4 | 3:43.66 | 1:38.58 | 16791 | 24198
5 | 5:22.49 | 1:10.24 | 24199 | 29472
6 | 6:32.73 | 1:18.69 | 29473 | 35391
7 | 7:51.67 | 2:20.74 | 35392 | 45965
8 | 10:12.66 | 1:59.63 | 45966 | 54953
9 | 12:12.54 | 1:25.12 | 54954 | 61340
10 | 13:37.66 | 1:54.00 | 61341 | 69890
11 | 15:31.66 | 2:53.25 | 69891 | 82890
12 | 18:25.16 | 0:36.62 | 82891 | 85652
13 | 19:02.03 | 1:22.09 | 85653 | 91811
14 | 20:24.12 | 1:12.11 | 91812 | 97222
15 | 21:36.23 | 0:50.66 | 97223 | 101038
16 | 22:27.14 | 6:40.48 | 101039 | 131086
17 | 29:07.62 | 5:37.45 | 131087 | 156406
18 | 34:45.32 | 12:52.57 | 156407 | 214363
19 | 47:38.14 | 7:04.10 | 214364 | 246173
20 | 54:42.24 | 7:25.50 | 246174 | 279598
21 | 62:07.74 | 8:42.10 | 279599 | 318758
22 | 70:50.09 | 7:20.07 | 318759 | 351765

Track 1

Filename C:\EAC Rips\Antonio Sanchez - Birdman (2014) [FLAC]\01 - Get Ready.wav

Pre-gap length 0:00:02.00

Peak level 97.6 %
Extraction speed 1.0 X
Track quality 100.0 %
Test CRC 1502D714
Copy CRC 1502D714
Track not present in AccurateRip database
Copy OK

Track 2

Filename C:\EAC Rips\Antonio Sanchez - Birdman (2014) [FLAC]\02 - Dirty Walk.wav

Pre-gap length 0:00:02.00

Peak level 79.3 %
Extraction speed 0.8 X
Track quality 99.8 %
Test CRC 08E0DE55
Copy CRC 08E0DE55
Track not present in AccurateRip database
Copy OK

Track 3

Filename C:\EAC Rips\Antonio Sanchez - Birdman (2014) [FLAC]\03 - Just Chatting.wav

Pre-gap length 0:00:02.00

Peak level 96.4 %
Extraction speed 0.7 X
Track quality 100.0 %
Test CRC 73401C73
Copy CRC 73401C73
Track not present in AccurateRip database
Copy OK

Track 4

Filename C:\EAC Rips\Antonio Sanchez - Birdman (2014) [FLAC]\04 - Waiting for What.wav

Pre-gap length 0:00:02.00

Peak level 97.0 %
Extraction speed 1.1 X
Track quality 100.0 %
Test CRC D1772214
Copy CRC D1772214
Track not present in AccurateRip database
Copy OK

Track 5

Filename C:\EAC Rips\Antonio Sanchez - Birdman (2014) [FLAC]\05 - Semi Comfortable in 3.wav

Pre-gap length 0:00:02.00

Peak level 97.4 %
Extraction speed 1.0 X
Track quality 100.0 %
Test CRC 4F656F7E
Copy CRC 4F656F7E
Track not present in AccurateRip database
Copy OK

Track 6

Filename C:\EAC Rips\Antonio Sanchez - Birdman (2014) [FLAC]\06 - Strut Part I.wav

Pre-gap length 0:00:02.00

Peak level 96.5 %
Extraction speed 1.0 X
Track quality 100.0 %
Test CRC 096B1195
Copy CRC 096B1195
Track not present in AccurateRip database
Copy OK

Track 7

Filename C:\EAC Rips\Antonio Sanchez - Birdman (2014) [FLAC]\07 - Doors and Distance.wav

Pre-gap length 0:00:02.00

Peak level 99.5 %
Extraction speed 1.3 X
Track quality 100.0 %
Test CRC 07573AC4
Copy CRC 07573AC4
Track not present in AccurateRip database
Copy OK

Track 8

Filename C:\EAC Rips\Antonio Sanchez - Birdman (2014) [FLAC]\08 - Night Chatter.wav

Pre-gap length 0:00:02.00

Peak level 97.4 %
Extraction speed 1.0 X
Track quality 99.9 %
Test CRC 8F464A77
Copy CRC 8F464A77
Track not present in AccurateRip database
Copy OK

Track 9

Filename C:\EAC Rips\Antonio Sanchez - Birdman (2014) [FLAC]\09 - Almost Human.wav

Pre-gap length 0:00:02.00

Peak level 97.4 %
Extraction speed 1.2 X
Track quality 100.0 %
Test CRC A3F8629C
Copy CRC A3F8629C
Track not present in AccurateRip database
Copy OK

Track 10

Filename C:\EAC Rips\Antonio Sanchez - Birdman (2014) [FLAC]\10 - Schizo.wav

Pre-gap length 0:00:02.00

Peak level 97.3 %
Extraction speed 1.3 X
Track quality 100.0 %
Test CRC CD32A32A
Copy CRC CD32A32A
Track not present in AccurateRip database
Copy OK

Track 11

Filename C:\EAC Rips\Antonio Sanchez - Birdman (2014) [FLAC]\11 - Internal War.wav

Pre-gap length 0:00:02.00

Peak level 99.0 %
Extraction speed 1.5 X
Track quality 100.0 %
Test CRC 4E4E1C02
Copy CRC 4E4E1C02
Track not present in AccurateRip database
Copy OK

Track 12

Filename C:\EAC Rips\Antonio Sanchez - Birdman (2014) [FLAC]\12 - Kinda Messy.wav

Pre-gap length 0:00:02.00

Peak level 91.2 %
Extraction speed 0.6 X
Track quality 99.7 %
Test CRC 9D2761D8
Copy CRC 9D2761D8
Track not present in AccurateRip database
Copy OK

Track 13

Filename C:\EAC Rips\Antonio Sanchez - Birdman (2014) [FLAC]\13 - Strut Part II.wav

Pre-gap length 0:00:02.00

Peak level 100.0 %
Extraction speed 1.3 X
Track quality 100.0 %
Test CRC D31443CA
Copy CRC D31443CA
Track not present in AccurateRip database
Copy OK

Track 14

Filename C:\EAC Rips\Antonio Sanchez - Birdman (2014) [FLAC]\14 - Claustrophobia.wav

Pre-gap length 0:00:02.00

Peak level 99.7 %
Extraction speed 1.3 X
Track quality 100.0 %
Test CRC BB28340E
Copy CRC BB28340E
Track not present in AccurateRip database
Copy OK

Track 15

Filename C:\EAC Rips\Antonio Sanchez - Birdman (2014) [FLAC]\15 - Fire Trail.wav

Pre-gap length 0:00:02.00

Peak level 98.6 %
Extraction speed 1.1 X
Track quality 100.0 %
Test CRC 10E8B96A
Copy CRC 10E8B96A
Track not present in AccurateRip database
Copy OK

Track 16

Filename C:\EAC Rips\Antonio Sanchez - Birdman (2014) [FLAC]\16 - The Anxious Battle for Sanity.wav

Pre-gap length 0:00:02.00

Peak level 97.8 %
Extraction speed 1.9 X
Track quality 100.0 %
Test CRC ABC9B45E
Copy CRC ABC9B45E
Track not present in AccurateRip database
Copy OK

Track 17

Filename C:\EAC Rips\Antonio Sanchez - Birdman (2014) [FLAC]\17 - Symphony No. 9 in D – 1st Movement- Andante comodo (Gustav Mahler).wav

Pre-gap length 0:00:02.00

Peak level 97.4 %
Extraction speed 2.0 X
Track quality 100.0 %
Test CRC 18025518
Copy CRC 18025518
Track not present in AccurateRip database
Copy OK

Track 18

Filename C:\EAC Rips\Antonio Sanchez - Birdman (2014) [FLAC]\18 - Symphony No. 5 Op. 64 in E minor- Andante cantabile (Pyotr Ilyich Tchaikovsky).wav

Pre-gap length 0:00:02.00

Peak level 96.4 %
Extraction speed 2.3 X
Track quality 100.0 %
Test CRC 549ADCBE
Copy CRC 549ADCBE
Track not present in AccurateRip database
Copy OK

Track 19

Filename C:\EAC Rips\Antonio Sanchez - Birdman (2014) [FLAC]\19 - Ich bin der Welt abhanden gekommen (Gustav Mahler).wav

Pre-gap length 0:00:02.00

Peak level 70.3 %
Extraction speed 2.4 X
Track quality 100.0 %
Test CRC 1C99AE9E
Copy CRC 1C99AE9E
Track not present in AccurateRip database
Copy OK

Track 20

Filename C:\EAC Rips\Antonio Sanchez - Birdman (2014) [FLAC]\20 - Passacaille (Très large) (Maurice Ravel).wav

Pre-gap length 0:00:02.00

Peak level 98.2 %
Extraction speed 2.5 X
Track quality 100.0 %
Test CRC 81649936
Copy CRC 81649936
Track not present in AccurateRip database
Copy OK

Track 21

Filename C:\EAC Rips\Antonio Sanchez - Birdman (2014) [FLAC]\21 - Prologue- Chorus of Exiled Palestinians (John Adams).wav

Pre-gap length 0:00:02.00

Peak level 98.4 %
Extraction speed 2.6 X
Track quality 100.0 %
Test CRC B10DB10F
Copy CRC B10DB10F
Track not present in AccurateRip database
Copy OK

Track 22

Filename C:\EAC Rips\Antonio Sanchez - Birdman (2014) [FLAC]\22 - Symphony No. 2 in E minor, Op. 27 - II. Allegro molto (Sergei Rachmaninoff).wav

Pre-gap length 0:00:02.00

Peak level 98.3 %
Extraction speed 2.7 X
Track quality 100.0 %
Test CRC 22B63AD2
Copy CRC 22B63AD2
Track not present in AccurateRip database
Copy OK

None of the tracks are present in the AccurateRip database

No errors occurred

End of status report

---- CUETools DB Plugin V2.1.3

[CTDB TOCID: etCNg2loO1XtIobIzUpad_qe6dc-] found, Submit result: etCNg2loO1XtIobIzUpad_qe6dc- has been confirmed
[af78be69] (1/1) Accurately ripped

==== Log checksum DCDEC3FF400D472337C0446168A03B8BA84AE7D2BDCCD4147E404CEC2F832CD5 ====
REM GENRE Soundtrack
REM DATE 2014
REM DISCID 36125216
REM COMMENT "ExactAudioCopy v1.0b3"
FILE "01 - Get Ready.wav" WAVE
TRACK 01 AUDIO
INDEX 01 00:00:00
TRACK 02 AUDIO
INDEX 00 01:28:51
FILE "02 - Dirty Walk.wav" WAVE
INDEX 01 00:00:00
TRACK 03 AUDIO
INDEX 00 01:34:43
FILE "03 - Just Chatting.wav" WAVE
INDEX 01 00:00:00
TRACK 04 AUDIO
INDEX 00 00:34:47
FILE "04 - Waiting for What.wav" WAVE
INDEX 01 00:00:00
TRACK 05 AUDIO
INDEX 00 01:36:58
FILE "05 - Semi Comfortable in 3.wav" WAVE
INDEX 01 00:00:00
TRACK 06 AUDIO
INDEX 00 01:08:24
FILE "06 - Strut Part I.wav" WAVE
INDEX 01 00:00:00
TRACK 07 AUDIO
INDEX 00 01:16:69
FILE "07 - Doors and Distance.wav" WAVE
INDEX 01 00:00:00
TRACK 08 AUDIO
INDEX 00 02:18:74
FILE "08 - Night Chatter.wav" WAVE
INDEX 01 00:00:00
TRACK 09 AUDIO
INDEX 00 01:57:63
FILE "09 - Almost Human.wav" WAVE
INDEX 01 00:00:00
TRACK 10 AUDIO
INDEX 00 01:23:12
FILE "10 - Schizo.wav" WAVE
INDEX 01 00:00:00
TRACK 11 AUDIO
INDEX 00 01:52:00
FILE "11 - Internal War.wav" WAVE
INDEX 01 00:00:00
TRACK 12 AUDIO
INDEX 00 02:51:25
FILE "12 - Kinda Messy.wav" WAVE
INDEX 01 00:00:00
TRACK 13 AUDIO
INDEX 00 00:34:62
FILE "13 - Strut Part II.wav" WAVE
INDEX 01 00:00:00
TRACK 14 AUDIO
INDEX 00 01:20:09
FILE "14 - Claustrophobia.wav" WAVE
INDEX 01 00:00:00
TRACK 15 AUDIO
INDEX 00 01:10:11
FILE "15 - Fire Trail.wav" WAVE
INDEX 01 00:00:00
TRACK 16 AUDIO
INDEX 00 00:48:66
FILE "16 - The Anxious Battle for Sanity.wav" WAVE
INDEX 01 00:00:00
TRACK 17 AUDIO
INDEX 00 06:38:48
FILE "17 - Symphony No. 9 in D – 1st Movement- Andante comodo (Gustav Mahler).wav" WAVE
INDEX 01 00:00:00
TRACK 18 AUDIO
INDEX 00 05:35:45
FILE "18 - Symphony No. 5 Op. 64 in E minor- Andante cantabile (Pyotr Ilyich Tchaikovsky).wav" WAVE
INDEX 01 00:00:00
TRACK 19 AUDIO
INDEX 00 12:50:57
FILE "19 - Ich bin der Welt abhanden gekommen (Gustav Mahler).wav" WAVE
INDEX 01 00:00:00
TRACK 20 AUDIO
INDEX 00 07:02:10
FILE "20 - Passacaille (Trиs large) (Maurice Ravel).wav" WAVE
INDEX 01 00:00:00
TRACK 21 AUDIO
INDEX 00 07:23:50
FILE "21 - Prologue- Chorus of Exiled Palestinians (John Adams).wav" WAVE
INDEX 01 00:00:00
TRACK 22 AUDIO
INDEX 00 08:40:10
FILE "22 - Symphony No. 2 in E minor, Op. 27 - II. Allegro molto (Sergei Rachmaninoff).wav" WAVE
INDEX 01 00:00:00


Трекер:  [ 15-Янв-2015 17:00 ]

  

Скачать .torrent

Размер .torrent файла 16 KB


Размер: 358 MB
Хэш (hash) релиза: 2cc2f9050d72858a80136ae1bdfbc5c4fd262787

Торренты, похожие на Бёрдмэн Birdman скачать торрент

Форум Название Автор Размер S L Добавлен
Саундтреки к фильмам и мультфильмам (mp3) ·· (Score) Бёрдмэн (Бердмэн, Бёрдмен, Бердмен) / Birdman (Original Motion Picture Soundtrack) (by Antonio Sanchez) - 2014, MP3 (tracks), 320 kbps Galfimbul 192884787184 MB 0 0 1421230478

13:14

14-Янв-15

Еще никто не оставлял запись к записи скачать торрент Бёрдмэн Birdman . Будь первым!

!Обратная связь