Скачать через торрент музыку Хоббит: Нежданное Путешествие, Пустошь Смауга, Битва Пяти Воинств The Hobbit: An Unexpected Journey, The Desolation of Smaug, The Battle of the Five Armies бесплатно без регистрации torrent

Если у вас наблюдаются проблемы со скриншотами, переходом по ссылками, скачиванием торрентов - проблемы в блокировщике рекламы AdBlock. #хорошегоДня!


Статистика раздачи
Размер:  3.42 GB   |    Зарегистрирован:  2 года 8 месяцев   |    .torrent скачан:  60 раз   |   
Раздают:  1  
   
Загрузка...
 
Автор Сообщение

Galfimbul

avatar Galfimbul





Жанр: Score || Композитор: Howard Shore || Год выпуска диска: 2012-2014 || Страна-производитель диска: США || Аудио кодек: FLAC (*.flac) || Тип рипа: tracks+.cue || Битрейт аудио: lossless || Продолжительность: 11:24:56 || Источник: (Frankenhooker, LastSilmaril, nazgul68, amh1219) || Наличие сканов в содержимом раздачи: нет
Треклист:
[spoiler="The Hobbit: An Unexpected Journey - 2012 [Standard Edition]"]
CD1
01. My Dear Frodo (08:04)
02. Old Friends (04:29)
03. An Unexpected Party (03:52)
04. Axe Or Sword? (05:57)
05. Misty Mountains (01:42)
performed by Richard Armitage & The Dwarf Cast
06. The Adventure Begins (02:04)
07. The World Is Ahead (02:19)
08. An Ancient Enemy (04:58)
09. Radagast The Brown (04:54)
10. Roast Mutton (04:02)
11. A Troll-Hoard (02:38)
12. The Hill Of Sorcery (03:50)
13. Warg-Scouts (03:02)Продолжительность: 00:52:06CD2
01. The Hidden Valley (03:50)
02. Moon Runes (03:20)
03. The Defiler (01:13)
04. The White Council (07:19)
05. Over Hill (03:43)
06. A Thunder Battle (03:55)
07. Under Hill (01:55)
08. Riddles In The Dark (05:21)
09. Brass Buttons (07:37)
10. Out Of The Frying-Pan (05:54)
11. A Good Omen (05:46)
12. Song Of The Lonely Mountain (04:09)
performed by Neil Finn
13. Dreaming Of Bag End (01:49)
Продолжительность: 00:56:04
X Lossless Decoder version 20121027 (142.1)

XLD extraction logfile from 2012-12-11 19:42:05 +0100

Howard Shore / The Hobbit: An Unexpected Journey

Used drive : HL-DT-ST DVD-RW GH61N (revision PA03)

Ripper mode : XLD Secure RipperDisable audio cache : OK for the drive with a cache less than 1375KiBMake use of C2 pointers : NORead offset correction : 667Max retry count : 20Gap status : Analyzed, Appended

TOC of the extracted CD Track | Start | Length | Start sector | End sector --------------------------------------------------------- 1 | 00:00:00 | 08:04:27 | 0 | 36326 2 | 08:04:27 | 04:29:46 | 36327 | 56547 3 | 12:33:73 | 03:52:65 | 56548 | 74012 4 | 16:26:63 | 05:59:23 | 74013 | 100960 5 | 22:26:11 | 01:42:62 | 100961 | 108672 6 | 24:08:73 | 02:05:51 | 108673 | 118098 7 | 26:14:49 | 02:20:60 | 118099 | 128658 8 | 28:35:34 | 04:58:43 | 128659 | 151051 9 | 33:34:02 | 04:54:67 | 151052 | 173168 10 | 38:28:69 | 04:03:37 | 173169 | 191430 11 | 42:32:31 | 02:39:61 | 191431 | 203416 12 | 45:12:17 | 03:51:32 | 203417 | 220773 13 | 49:03:49 | 03:02:68 | 220774 | 234491

AccurateRip Summary Disc not found in AccurateRip DB.

All Tracks Album gain : -4.95 dB Peak : 0.999146 Statistics Read error : 0 Jitter error (maybe fixed) : 0 Retry sector count : 0 Damaged sector count : 0

Track 01 Filename : /Volumes/Data/01 My Dear Frodo.flac Pre-gap length : 00:02:00

Track gain : -4.76 dB Peak : 0.999146 CRC32 hash (test run) : 225357B4 CRC32 hash : 225357B4 CRC32 hash (skip zero) : 0FBB22FB AccurateRip v1 signature : E79C5844 AccurateRip v2 signature : 43B916A5 ->Track not present in AccurateRip database. Statistics Read error : 0 Jitter error (maybe fixed) : 0 Retry sector count : 0 Damaged sector count : 0

Track 02 Filename : /Volumes/Data/02 Old Friends.flac Pre-gap length : 00:01:46

Track gain : -3.13 dB Peak : 0.968506 CRC32 hash (test run) : 0EB81C66 CRC32 hash : 0EB81C66 CRC32 hash (skip zero) : 448BCFAD AccurateRip v1 signature : 10E1A61A AccurateRip v2 signature : 738B4701 ->Track not present in AccurateRip database. Statistics Read error : 0 Jitter error (maybe fixed) : 0 Retry sector count : 0 Damaged sector count : 0

Track 03 Filename : /Volumes/Data/03 An Unexpected Party.flac Pre-gap length : 00:02:36

Track gain : 0.10 dB Peak : 0.870544 CRC32 hash (test run) : 5C616D0B CRC32 hash : 5C616D0B CRC32 hash (skip zero) : 04BD375D AccurateRip v1 signature : 12BD4845 AccurateRip v2 signature : 5677A825 ->Track not present in AccurateRip database. Statistics Read error : 0 Jitter error (maybe fixed) : 0 Retry sector count : 0 Damaged sector count : 0

Track 04 Filename : /Volumes/Data/04 Axe Or Sword?.flac Pre-gap length : 00:00:42

Track gain : -2.30 dB Peak : 0.991852 CRC32 hash (test run) : 9D29B4D4 CRC32 hash : 9D29B4D4 CRC32 hash (skip zero) : E9133914 AccurateRip v1 signature : 42CFB49A AccurateRip v2 signature : 8EA44B5D ->Track not present in AccurateRip database. Statistics Read error : 0 Jitter error (maybe fixed) : 0 Retry sector count : 0 Damaged sector count : 0

Track 05 Filename : /Volumes/Data/05 Misty Mountains.flac Pre-gap length : 00:02:13

Track gain : 7.99 dB Peak : 0.368103 CRC32 hash (test run) : A56E4F03 CRC32 hash : A56E4F03 CRC32 hash (skip zero) : E84A1903 AccurateRip v1 signature : 6ACED589 AccurateRip v2 signature : 1EDA2CA6 ->Track not present in AccurateRip database. Statistics Read error : 0 Jitter error (maybe fixed) : 0 Retry sector count : 0 Damaged sector count : 0

Track 06 Filename : /Volumes/Data/06 The Adventure Begins.flac Pre-gap length : 00:03:11

Track gain : -5.97 dB Peak : 0.999115 CRC32 hash (test run) : 3FB2AC0F CRC32 hash : 3FB2AC0F CRC32 hash (skip zero) : D78A1B61 AccurateRip v1 signature : 7187458A AccurateRip v2 signature : C84A770A ->Track not present in AccurateRip database. Statistics Read error : 0 Jitter error (maybe fixed) : 0 Retry sector count : 0 Damaged sector count : 0

Track 07 Filename : /Volumes/Data/07 The World Is Ahead.flac Pre-gap length : 00:03:09

Track gain : -4.30 dB Peak : 0.953888 CRC32 hash (test run) : A403D441 CRC32 hash : A403D441 CRC32 hash (skip zero) : 02E61A9B AccurateRip v1 signature : DA9C3266 AccurateRip v2 signature : 96398B5F ->Track not present in AccurateRip database. Statistics Read error : 0 Jitter error (maybe fixed) : 0 Retry sector count : 0 Damaged sector count : 0

Track 08 Filename : /Volumes/Data/08 An Ancient Enemy.flac Pre-gap length : 00:02:10

Track gain : -6.50 dB Peak : 0.999146 CRC32 hash (test run) : 27FFD09E CRC32 hash : 27FFD09E CRC32 hash (skip zero) : B1232946 AccurateRip v1 signature : C76BD400 AccurateRip v2 signature : B8D675F4 ->Track not present in AccurateRip database. Statistics Read error : 0 Jitter error (maybe fixed) : 0 Retry sector count : 0 Damaged sector count : 0

Track 09 Filename : /Volumes/Data/09 Radagast the Brown.flac Pre-gap length : 00:02:09

Track gain : -4.93 dB Peak : 0.994904 CRC32 hash (test run) : B17DF3EF CRC32 hash : B17DF3EF CRC32 hash (skip zero) : 901FE938 AccurateRip v1 signature : BB982F0C AccurateRip v2 signature : 9156A908 ->Track not present in AccurateRip database. Statistics Read error : 0 Jitter error (maybe fixed) : 0 Retry sector count : 0 Damaged sector count : 0

Track 10 Filename : /Volumes/Data/10 Roast Mutton.flac Pre-gap length : 00:01:67

Track gain : -5.85 dB Peak : 0.999146 CRC32 hash (test run) : 7A88ACF3 CRC32 hash : 7A88ACF3 CRC32 hash (skip zero) : 0E2F2995 AccurateRip v1 signature : 74A733DA AccurateRip v2 signature : F795D830 ->Track not present in AccurateRip database. Statistics Read error : 0 Jitter error (maybe fixed) : 0 Retry sector count : 0 Damaged sector count : 0

Track 11 Filename : /Volumes/Data/11 A Troll-Hoard.flac Pre-gap length : 00:02:64

Track gain : -1.02 dB Peak : 0.917938 CRC32 hash (test run) : D27598C4 CRC32 hash : D27598C4 CRC32 hash (skip zero) : 12DF0720 AccurateRip v1 signature : C2F0A05D AccurateRip v2 signature : 78539268 ->Track not present in AccurateRip database. Statistics Read error : 0 Jitter error (maybe fixed) : 0 Retry sector count : 0 Damaged sector count : 0

Track 12 Filename : /Volumes/Data/12 The Hill of Sorcery.flac Pre-gap length : 00:02:49

Track gain : -4.40 dB Peak : 0.999146 CRC32 hash (test run) : A9A29229 CRC32 hash : A9A29229 CRC32 hash (skip zero) : 1FD958ED AccurateRip v1 signature : DDB9A093 AccurateRip v2 signature : 0596B275 ->Track not present in AccurateRip database. Statistics Read error : 0 Jitter error (maybe fixed) : 0 Retry sector count : 0 Damaged sector count : 0

Track 13 Filename : /Volumes/Data/13 Warg-Scouts.flac Pre-gap length : 00:02:46

Track gain : -4.84 dB Peak : 0.998993 CRC32 hash (test run) : CD9E3C6A CRC32 hash : CD9E3C6A CRC32 hash (skip zero) : B56F8077 AccurateRip v1 signature : 5D42558E AccurateRip v2 signature : C83DCD25 ->Track not present in AccurateRip database. Statistics Read error : 0 Jitter error (maybe fixed) : 0 Retry sector count : 0 Damaged sector count : 0

No errors occurred

End of status report
REM GENRE SoundtrackREM DATE 2012REM DISCID BC0C360DREM COMMENT "ExactAudioCopy v1.0b3"PERFORMER "Howard Shore"TITLE "The Hobbit: An Unexpected Journey"FILE "01. My Dear Frodo.wav" WAVE TRACK 01 AUDIO TITLE "My Dear Frodo" PERFORMER "Howard Shore" INDEX 01 00:00:00 TRACK 02 AUDIO TITLE "Old Friends" PERFORMER "Howard Shore" INDEX 00 08:02:56FILE "02. Old Friends.wav" WAVE INDEX 01 00:00:00 TRACK 03 AUDIO TITLE "An Unexpected Party" PERFORMER "Howard Shore" INDEX 00 04:27:11FILE "03. An Unexpected Party.wav" WAVE INDEX 01 00:00:00FILE "04. Axe or Sword.wav" WAVE TRACK 04 AUDIO TITLE "Axe or Sword?" PERFORMER "Howard Shore" INDEX 01 00:00:00 TRACK 05 AUDIO TITLE "Misty Mountains" PERFORMER "Richard Armitage and The Dwarf Cast" INDEX 00 05:57:29FILE "05. Misty Mountains.wav" WAVE INDEX 01 00:00:00 TRACK 06 AUDIO TITLE "The Adventure Begins" PERFORMER "Howard Shore" INDEX 00 01:39:51FILE "06. The Adventure Begins.wav" WAVE INDEX 01 00:00:00 TRACK 07 AUDIO TITLE "The World Is Ahead" PERFORMER "Howard Shore" INDEX 00 02:02:42FILE "07. The World Is Ahead.wav" WAVE INDEX 01 00:00:00FILE "08. An Ancient Enemy.wav" WAVE TRACK 08 AUDIO TITLE "An Ancient Enemy" PERFORMER "Howard Shore" INDEX 01 00:00:00 TRACK 09 AUDIO TITLE "Radagast the Brown" PERFORMER "Howard Shore" INDEX 00 04:56:34FILE "09. Radagast the Brown.wav" WAVE INDEX 01 00:00:00 TRACK 10 AUDIO TITLE "Roast Mutton" PERFORMER "Howard Shore" INDEX 00 04:53:00FILE "10. Roast Mutton.wav" WAVE INDEX 01 00:00:00 TRACK 11 AUDIO TITLE "A Troll-Hoard" PERFORMER "Howard Shore" INDEX 00 04:00:50FILE "11. A Troll-Hoard.wav" WAVE INDEX 01 00:00:00 TRACK 12 AUDIO TITLE "The Hill of Sorcery" PERFORMER "Howard Shore" INDEX 00 02:37:12FILE "12. The Hill of Sorcery.wav" WAVE INDEX 01 00:00:00 TRACK 13 AUDIO TITLE "Warg-Scouts" PERFORMER "Howard Shore" INDEX 00 03:48:61FILE "13. Warg-Scouts.wav" WAVE INDEX 01 00:00:00
X Lossless Decoder version 20121027 (142.1)

XLD extraction logfile from 2012-12-11 20:03:34 +0100

Howard Shore / The Hobbit: An Unexpected Journey

Used drive : HL-DT-ST DVD-RW GH61N (revision PA03)

Ripper mode : XLD Secure RipperDisable audio cache : OK for the drive with a cache less than 1375KiBMake use of C2 pointers : NORead offset correction : 667Max retry count : 20Gap status : Analyzed, Appended

TOC of the extracted CD Track | Start | Length | Start sector | End sector --------------------------------------------------------- 1 | 00:00:00 | 03:52:30 | 0 | 17429 2 | 03:52:30 | 03:20:19 | 17430 | 32448 3 | 07:12:49 | 01:14:35 | 32449 | 38033 4 | 08:27:09 | 07:20:39 | 38034 | 71072 5 | 15:47:48 | 03:44:25 | 71073 | 87897 6 | 19:31:73 | 03:55:05 | 87898 | 105527 7 | 23:27:03 | 01:55:20 | 105528 | 114172 8 | 25:22:23 | 05:21:65 | 114173 | 138312 9 | 30:44:13 | 07:38:27 | 138313 | 172689 10 | 38:22:40 | 05:55:28 | 172690 | 199342 11 | 44:17:68 | 05:46:74 | 199343 | 225366 12 | 50:04:67 | 04:10:00 | 225367 | 244116 13 | 54:14:67 | 01:49:68 | 244117 | 252359

AccurateRip Summary Disc not found in AccurateRip DB.

All Tracks Album gain : -3.96 dB Peak : 0.999084 Statistics Read error : 0 Jitter error (maybe fixed) : 0 Retry sector count : 0 Damaged sector count : 0

Track 01 Filename : /Volumes/Data/01 The Hidden Valley.flac Pre-gap length : 00:02:00

Track gain : -1.19 dB Peak : 0.902374 CRC32 hash (test run) : 5170BAD7 CRC32 hash : 5170BAD7 CRC32 hash (skip zero) : 0D8FD7C4 AccurateRip v1 signature : D7C04ABE AccurateRip v2 signature : 34886539 ->Track not present in AccurateRip database. Statistics Read error : 0 Jitter error (maybe fixed) : 0 Retry sector count : 0 Damaged sector count : 0

Track 02 Filename : /Volumes/Data/02 Moon Runes.flac Pre-gap length : 00:03:17

Track gain : -1.18 dB Peak : 0.784424 CRC32 hash (test run) : 812961DB CRC32 hash : 812961DB CRC32 hash (skip zero) : FB5BE5FF AccurateRip v1 signature : A2493947 AccurateRip v2 signature : 085B0EED ->Track not present in AccurateRip database. Statistics Read error : 0 Jitter error (maybe fixed) : 0 Retry sector count : 0 Damaged sector count : 0

Track 03 Filename : /Volumes/Data/03 The Defiler.flac Pre-gap length : 00:02:16

Track gain : -1.84 dB Peak : 0.995911 CRC32 hash (test run) : 93265AA0 CRC32 hash : 93265AA0 CRC32 hash (skip zero) : 213632E3 AccurateRip v1 signature : 55E6DAB1 AccurateRip v2 signature : FDC48756 ->Track not present in AccurateRip database. Statistics Read error : 0 Jitter error (maybe fixed) : 0 Retry sector count : 0 Damaged sector count : 0

Track 04 Filename : /Volumes/Data/04 The White Council.flac Pre-gap length : 00:02:07

Track gain : -0.90 dB Peak : 0.945282 CRC32 hash (test run) : 09927279 CRC32 hash : 09927279 CRC32 hash (skip zero) : 7D53FEEC AccurateRip v1 signature : E628F0E2 AccurateRip v2 signature : DD6D98DE ->Track not present in AccurateRip database. Statistics Read error : 0 Jitter error (maybe fixed) : 0 Retry sector count : 0 Damaged sector count : 0

Track 05 Filename : /Volumes/Data/05 Over Hill.flac Pre-gap length : 00:01:30

Track gain : -2.91 dB Peak : 0.992126 CRC32 hash (test run) : 447A7D51 CRC32 hash : 447A7D51 CRC32 hash (skip zero) : 9D4884A4 AccurateRip v1 signature : FBDA84A4 AccurateRip v2 signature : 89979E97 ->Track not present in AccurateRip database. Statistics Read error : 0 Jitter error (maybe fixed) : 0 Retry sector count : 0 Damaged sector count : 0

Track 06 Filename : /Volumes/Data/06 A Thunder Battle.flac Pre-gap length : 00:02:46

Track gain : -5.45 dB Peak : 0.999084 CRC32 hash (test run) : 9ECA00A4 CRC32 hash : 9ECA00A4 CRC32 hash (skip zero) : FC72DD56 AccurateRip v1 signature : 399095C5 AccurateRip v2 signature : 06C91929 ->Track not present in AccurateRip database. Statistics Read error : 0 Jitter error (maybe fixed) : 0 Retry sector count : 0 Damaged sector count : 0

Track 07 Filename : /Volumes/Data/07 Under Hill.flac Pre-gap length : 00:01:55

Track gain : -3.69 dB Peak : 0.981750 CRC32 hash (test run) : 45703828 CRC32 hash : 45703828 CRC32 hash (skip zero) : D4502EFF AccurateRip v1 signature : 6D435C7A AccurateRip v2 signature : 96DEC84D ->Track not present in AccurateRip database. Statistics Read error : 0 Jitter error (maybe fixed) : 0 Retry sector count : 0 Damaged sector count : 0

Track 08 Filename : /Volumes/Data/08 Riddles in the Dark.flac Pre-gap length : 00:02:21

Track gain : -1.63 dB Peak : 0.939972 CRC32 hash (test run) : D45B0818 CRC32 hash : D45B0818 CRC32 hash (skip zero) : 4688EA18 AccurateRip v1 signature : 528E1F06 AccurateRip v2 signature : A784650C ->Track not present in AccurateRip database. Statistics Read error : 0 Jitter error (maybe fixed) : 0 Retry sector count : 0 Damaged sector count : 0

Track 09 Filename : /Volumes/Data/09 Brass Buttons.flac Pre-gap length : 00:01:30

Track gain : -3.06 dB Peak : 0.996582 CRC32 hash (test run) : 94D2D71A CRC32 hash : 94D2D71A CRC32 hash (skip zero) : 8A061EBF AccurateRip v1 signature : AE9F4CD9 AccurateRip v2 signature : 801B8E17 ->Track not present in AccurateRip database. Statistics Read error : 0 Jitter error (maybe fixed) : 0 Retry sector count : 0 Damaged sector count : 0

Track 10 Filename : /Volumes/Data/10 Out of the Frying-Pan.flac Pre-gap length : 00:01:19

Track gain : -5.14 dB Peak : 0.995178 CRC32 hash (test run) : CAC9E565 CRC32 hash : CAC9E565 CRC32 hash (skip zero) : B1EA04B4 AccurateRip v1 signature : B6E2491F AccurateRip v2 signature : B789357F ->Track not present in AccurateRip database. Statistics Read error : 0 Jitter error (maybe fixed) : 0 Retry sector count : 0 Damaged sector count : 0

Track 11 Filename : /Volumes/Data/11 A Good Omen.flac Pre-gap length : 00:01:70

Track gain : -2.55 dB Peak : 0.989075 CRC32 hash (test run) : E6C7A453 CRC32 hash : E6C7A453 CRC32 hash (skip zero) : 35C8D734 AccurateRip v1 signature : 87B79C6B AccurateRip v2 signature : 3056DDD0 ->Track not present in AccurateRip database. Statistics Read error : 0 Jitter error (maybe fixed) : 0 Retry sector count : 0 Damaged sector count : 0

Track 12 Filename : /Volumes/Data/12 Song of the Lonely Mountain.flac Pre-gap length : 00:02:18

Track gain : -5.73 dB Peak : 0.718018 CRC32 hash (test run) : 9144F690 CRC32 hash : 9144F690 CRC32 hash (skip zero) : 349907A1 AccurateRip v1 signature : 03B08F6A AccurateRip v2 signature : 4167373C ->Track not present in AccurateRip database. Statistics Read error : 0 Jitter error (maybe fixed) : 0 Retry sector count : 0 Damaged sector count : 0

Track 13 Filename : /Volumes/Data/13 Dreaming of Bag End.flac Pre-gap length : 00:01:66

Track gain : 0.53 dB Peak : 0.657532 CRC32 hash (test run) : 9782006C CRC32 hash : 9782006C CRC32 hash (skip zero) : CFF063EE AccurateRip v1 signature : 83F6A308 AccurateRip v2 signature : 8F30C302 ->Track not present in AccurateRip database. Statistics Read error : 0 Jitter error (maybe fixed) : 0 Retry sector count : 0 Damaged sector count : 0

No errors occurred

End of status report
REM GENRE SoundtrackREM DATE 2012REM DISCID AB0D240DREM COMMENT "ExactAudioCopy v1.0b3"PERFORMER "Howard Shore"TITLE "The Hobbit: An Unexpected Journey"FILE "01. The Hidden Valley.wav" WAVE TRACK 01 AUDIO TITLE "The Hidden Valley" PERFORMER "Howard Shore" INDEX 01 00:00:00 TRACK 02 AUDIO TITLE "Moon Runes" PERFORMER "Howard Shore" INDEX 00 03:49:13FILE "02. Moon Runes.wav" WAVE INDEX 01 00:00:00 TRACK 03 AUDIO TITLE "The Defiler" PERFORMER "Howard Shore" INDEX 00 03:18:03FILE "03. The Defiler.wav" WAVE INDEX 01 00:00:00 TRACK 04 AUDIO TITLE "The White Council" PERFORMER "Howard Shore" INDEX 00 01:12:28FILE "04. The White Council.wav" WAVE INDEX 01 00:00:00FILE "05. Over Hill.wav" WAVE TRACK 05 AUDIO TITLE "Over Hill" PERFORMER "Howard Shore" INDEX 01 00:00:00FILE "06. A Thunder Battle.wav" WAVE TRACK 06 AUDIO TITLE "A Thunder Battle" PERFORMER "Howard Shore" INDEX 01 00:00:00FILE "07. Under Hill.wav" WAVE TRACK 07 AUDIO TITLE "Under Hill" PERFORMER "Howard Shore" INDEX 01 00:00:00 TRACK 08 AUDIO TITLE "Riddles in the Dark" PERFORMER "Howard Shore" INDEX 00 01:52:74FILE "08. Riddles in the Dark.wav" WAVE INDEX 01 00:00:00 INDEX 02 05:20:35 TRACK 09 AUDIO TITLE "Brass Buttons" PERFORMER "Howard Shore" INDEX 00 05:20:35FILE "09. Brass Buttons.wav" WAVE INDEX 01 00:00:00 TRACK 10 AUDIO TITLE "Out of the Frying-Pan" PERFORMER "Howard Shore" INDEX 00 07:37:08FILE "10. Out of the Frying-Pan.wav" WAVE INDEX 01 00:00:00 INDEX 02 05:36:48FILE "11. A Good Omen.wav" WAVE TRACK 11 AUDIO TITLE "A Good Omen" PERFORMER "Howard Shore" INDEX 01 00:00:00 TRACK 12 AUDIO TITLE "Song of the Lonely Mountain" PERFORMER "Neil Finn" INDEX 00 05:40:24FILE "12. Song of the Lonely Mountain.wav" WAVE INDEX 01 00:00:00 TRACK 13 AUDIO TITLE "Dreaming of Bag End" PERFORMER "Howard Shore" INDEX 00 03:10:33FILE "13. Dreaming of Bag End.wav" WAVE INDEX 01 00:00:00
[/spoiler]
[spoiler="The Hobbit: An Unexpected Journey - 2012 [Special Edition]"]
CD1
01. My Dear Frodo (08:03)
02. Old Friends (Extended Version) (05:00)
03. An Unexpected Party (Extended Version) (04:10)
04. Blunt the Knives (01:02)
by The Dwarf Cast
05. Axe or Sword? (05:59)
06. Misty Mountains (01:42)
by The Dwarf Cast and Richard Armitage
07. The Adventure Begins (02:06)
08. The World Is Ahead (02:22)
09. An Ancient Enemy (04:59)
10. Radagast the Brown (Extended Version) (06:39)
11. The Trollshaws (02:09)
12. Roast Mutton (Extended Version) (04:58)
13. A Troll-Hoard (02:39)
14. The Hill of Sorcery (03:51)
15. Warg-Scouts (03:06)
Продолжительность: 00:58:43CD2
01. The Hidden Valley (03:49)
02. Moon Runes (Extended Version) (03:38)
03. The Defiler (01:15)
04. The White Council (Extended Version) (09:42)
05. Over Hill (03:43)
06. A Thunder Battle (03:56)
07. Under Hill (01:55)
08. Riddles in the Dark (05:23)
09. Brass Buttons (07:38)
10. Out of the Frying-Pan (05:55)
11. A Good Omen (05:47)
12. Song of the Lonely Mountain (Extended Version) (06:03)
by Neil Finn
13. Dreaming of Bag End (01:50)
14. A Very Respectable Hobbit (01:28)
15. Erebor (01:19)
16. The Dwarf Lords (02:01)
17. The Edge of the Wild (03:38)
Продолжительность: 01:08:59
Exact Audio Copy V1.0 beta 3 from 29. August 2011

EAC extraction logfile from 10. December 2012, 13:23

Howard Shore / The Hobbit - An Unexpected Journey [Special Edition]

Used drive : ATAPI iHBS112 2 Adapter: 3 ID: 1

Read mode : SecureUtilize accurate stream : YesDefeat audio cache : YesMake use of C2 pointers : No

Read offset correction : 6Overread into Lead-In and Lead-Out : NoFill up missing offset samples with silence : YesDelete leading and trailing silent blocks : NoNull samples used in CRC calculations : YesUsed interface : Native Win32 interface for Win NT & 2000Gap handling : Appended to previous track

Used output format : User Defined EncoderSelected bitrate : 1024 kBit/sQuality : HighAdd ID3 tag : NoCommand line compressor : C:\Program Files (x86)\Exact Audio Copy\FLAC\flac.exeAdditional command line options : -8 -V -T "ARTIST=%artist%" -T "TITLE=%title%" -T "ALBUM=%albumtitle%" -T "DATE=%year%" -T "TRACKNUMBER=%tracknr%" -T "GENRE=%genre%" -T "PERFORMER=%albuminterpret%" -T "COMPOSER=%composer%" %haslyrics%--tag-from-file=LYRICS="%lyricsfile%"%haslyrics% -T "ALBUMARTIST=%albumartist%" -T "DISCNUMBER=%cdnumber%" -T "TOTALDISCS=%totalcds%" -T "TOTALTRACKS=%numtracks%" -T "COMMENT=%comment%" %source% -o %dest%

TOC of the extracted CD

Track | Start | Length | Start sector | End sector --------------------------------------------------------- 1 | 0:00.00 | 8:03.70 | 0 | 36294 2 | 8:03.70 | 5:01.12 | 36295 | 58881 3 | 13:05.07 | 4:09.01 | 58882 | 77557 4 | 17:14.08 | 1:01.69 | 77558 | 82201 5 | 18:16.02 | 5:59.22 | 82202 | 109148 6 | 24:15.24 | 1:42.62 | 109149 | 116860 7 | 25:58.11 | 2:05.51 | 116861 | 126286 8 | 28:03.62 | 2:20.60 | 126287 | 136846 9 | 30:24.47 | 4:57.53 | 136847 | 159174 10 | 35:22.25 | 6:39.37 | 159175 | 189136 11 | 42:01.62 | 2:09.68 | 189137 | 198879 12 | 44:11.55 | 4:57.32 | 198880 | 221186 13 | 49:09.12 | 2:39.60 | 221187 | 233171 14 | 51:48.72 | 3:51.33 | 233172 | 250529 15 | 55:40.30 | 3:02.68 | 250530 | 264247

Track 1

Filename I:\My Music\Ripped\The Hobbit - An Unexpected Journey [Special Edition] (Disc 1)\01 - My Dear Frodo.wav

Pre-gap length 0:00:02.00

Peak level 99.9 % Extraction speed 2.5 X Track quality 100.0 % Test CRC 4E0BC7FB Copy CRC 4E0BC7FB Track not present in AccurateRip database Copy OK

Track 2

Filename I:\My Music\Ripped\The Hobbit - An Unexpected Journey [Special Edition] (Disc 1)\02 - Old Friends [Extended Version].wav

Pre-gap length 0:00:01.14

Peak level 97.1 % Extraction speed 2.7 X Track quality 100.0 % Test CRC AB311353 Copy CRC AB311353 Track not present in AccurateRip database Copy OK

Track 3

Filename I:\My Music\Ripped\The Hobbit - An Unexpected Journey [Special Edition] (Disc 1)\03 - An Unexpected Party [Extended Version].wav

Pre-gap length 0:00:02.13

Peak level 89.6 % Extraction speed 2.1 X Track quality 99.9 % Test CRC C50A269D Copy CRC C50A269D Track not present in AccurateRip database Copy OK

Track 4

Filename I:\My Music\Ripped\The Hobbit - An Unexpected Journey [Special Edition] (Disc 1)\04 - Blunt the Knive [performed by The Dwarf Cast].wav

Pre-gap length 0:00:01.20

Peak level 99.3 % Extraction speed 2.1 X Track quality 100.0 % Test CRC F8859EFC Copy CRC F8859EFC Track not present in AccurateRip database Copy OK

Track 5

Filename I:\My Music\Ripped\The Hobbit - An Unexpected Journey [Special Edition] (Disc 1)\05 - Axe or Sword.wav

Pre-gap length 0:00:01.41

Peak level 99.1 % Extraction speed 3.2 X Track quality 100.0 % Test CRC BD94A5A7 Copy CRC BD94A5A7 Track not present in AccurateRip database Copy OK

Track 6

Filename I:\My Music\Ripped\The Hobbit - An Unexpected Journey [Special Edition] (Disc 1)\06 - Misty Mountains [performed by Richard Armitage and The Dwarf Cast].wav

Pre-gap length 0:00:02.12

Peak level 36.8 % Extraction speed 2.7 X Track quality 100.0 % Test CRC 18232691 Copy CRC 18232691 Track not present in AccurateRip database Copy OK

Track 7

Filename I:\My Music\Ripped\The Hobbit - An Unexpected Journey [Special Edition] (Disc 1)\07 - The Adventure Begins.wav

Pre-gap length 0:00:03.10

Peak level 99.9 % Extraction speed 3.0 X Track quality 100.0 % Test CRC 82399AD7 Copy CRC 82399AD7 Track not present in AccurateRip database Copy OK

Track 8

Filename I:\My Music\Ripped\The Hobbit - An Unexpected Journey [Special Edition] (Disc 1)\08 - The World is Ahead.wav

Pre-gap length 0:00:03.08

Peak level 95.3 % Extraction speed 3.1 X Track quality 100.0 % Test CRC 866CD2E3 Copy CRC 866CD2E3 Track not present in AccurateRip database Copy OK

Track 9

Filename I:\My Music\Ripped\The Hobbit - An Unexpected Journey [Special Edition] (Disc 1)\09 - An Ancient Enemy.wav

Pre-gap length 0:00:02.09

Peak level 99.9 % Extraction speed 3.6 X Track quality 100.0 % Test CRC F1E10C7B Copy CRC F1E10C7B Track not present in AccurateRip database Copy OK

Track 10

Filename I:\My Music\Ripped\The Hobbit - An Unexpected Journey [Special Edition] (Disc 1)\10 - Radagast the Brown [Extended Version].wav

Pre-gap length 0:00:01.18

Peak level 99.9 % Extraction speed 3.9 X Track quality 100.0 % Test CRC 95DA7911 Copy CRC 95DA7911 Track not present in AccurateRip database Copy OK

Track 11

Filename I:\My Music\Ripped\The Hobbit - An Unexpected Journey [Special Edition] (Disc 1)\11 - The Trollshaws.wav

Pre-gap length 0:00:01.61

Peak level 99.4 % Extraction speed 3.4 X Track quality 100.0 % Test CRC A21BA304 Copy CRC A21BA304 Track not present in AccurateRip database Copy OK

Track 12

Filename I:\My Music\Ripped\The Hobbit - An Unexpected Journey [Special Edition] (Disc 1)\12 - Roast Mutton [Extended Version].wav

Pre-gap length 0:00:02.39

Peak level 99.9 % Extraction speed 4.0 X Track quality 100.0 % Test CRC DBAEB3E9 Copy CRC DBAEB3E9 Track not present in AccurateRip database Copy OK

Track 13

Filename I:\My Music\Ripped\The Hobbit - An Unexpected Journey [Special Edition] (Disc 1)\13 - A Troll-hoard.wav

Pre-gap length 0:00:01.55

Peak level 91.7 % Extraction speed 3.8 X Track quality 100.0 % Test CRC 7856AF8F Copy CRC 7856AF8F Track not present in AccurateRip database Copy OK

Track 14

Filename I:\My Music\Ripped\The Hobbit - An Unexpected Journey [Special Edition] (Disc 1)\14 - The Hill of Sorcery.wav

Pre-gap length 0:00:02.47

Peak level 99.9 % Extraction speed 4.1 X Track quality 100.0 % Test CRC D9D1B2A3 Copy CRC D9D1B2A3 Track not present in AccurateRip database Copy OK

Track 15

Filename I:\My Music\Ripped\The Hobbit - An Unexpected Journey [Special Edition] (Disc 1)\15 - Warg-scouts.wav

Pre-gap length 0:00:02.46

Peak level 99.9 % Extraction speed 2.8 X Track quality 99.9 % Test CRC 2BA662A6 Copy CRC 2BA662A6 Track not present in AccurateRip database Copy OK

None of the tracks are present in the AccurateRip database

No errors occurred

End of status report

---- CUETools DB Plugin V2.1.3

[CTDB TOCID: 536G_nI5qq49RLe2Yz_nxdT14YE-] found, Submit result: 536G_nI5qq49RLe2Yz_nxdT14YE- has been confirmed[8b7794c8] (1/1) Accurately ripped

==== Log checksum F5A89CF50D779FACF890A6803997D51097D48387F24DCD33C3F80201C7A2A1B1 ====
REM GENRE SoundtrackREM DATE 2012REM DISCID CE0DC30FREM COMMENT "ExactAudioCopy v1.0b3"FILE "01 - My Dear Frodo.wav" WAVE TRACK 01 AUDIO INDEX 01 00:00:00 TRACK 02 AUDIO INDEX 00 08:02:56FILE "02 - Old Friends [Extended Version].wav" WAVE INDEX 01 00:00:00 TRACK 03 AUDIO INDEX 00 04:58:74FILE "03 - An Unexpected Party [Extended Version].wav" WAVE INDEX 01 00:00:00 TRACK 04 AUDIO INDEX 00 04:07:56FILE "04 - Blunt the Knive [performed by The Dwarf Cast].wav" WAVE INDEX 01 00:00:00 TRACK 05 AUDIO INDEX 00 01:00:28FILE "05 - Axe or Sword.wav" WAVE INDEX 01 00:00:00 TRACK 06 AUDIO INDEX 00 05:57:10FILE "06 - Misty Mountains [performed by Richard Armitage and The Dwarf Cast].wav" WAVE INDEX 01 00:00:00 TRACK 07 AUDIO INDEX 00 01:39:52FILE "07 - The Adventure Begins.wav" WAVE INDEX 01 00:00:00 TRACK 08 AUDIO INDEX 00 02:02:43FILE "08 - The World is Ahead.wav" WAVE INDEX 01 00:00:00 TRACK 09 AUDIO INDEX 00 02:18:51FILE "09 - An Ancient Enemy.wav" WAVE INDEX 01 00:00:00 TRACK 10 AUDIO INDEX 00 04:56:35FILE "10 - Radagast the Brown [Extended Version].wav" WAVE INDEX 01 00:00:00 TRACK 11 AUDIO INDEX 00 06:37:51FILE "11 - The Trollshaws.wav" WAVE INDEX 01 00:00:00 TRACK 12 AUDIO INDEX 00 02:07:29FILE "12 - Roast Mutton [Extended Version].wav" WAVE INDEX 01 00:00:00 TRACK 13 AUDIO INDEX 00 04:55:52FILE "13 - A Troll-hoard.wav" WAVE INDEX 01 00:00:00 TRACK 14 AUDIO INDEX 00 02:37:13FILE "14 - The Hill of Sorcery.wav" WAVE INDEX 01 00:00:00 TRACK 15 AUDIO INDEX 00 03:48:62FILE "15 - Warg-scouts.wav" WAVE INDEX 01 00:00:00
Exact Audio Copy V1.0 beta 3 from 29. August 2011

EAC extraction logfile from 10. December 2012, 13:15

Howard Shore / The Hobbit - An Unexpected Journey [Special Edition]

Used drive : HL-DT-STBDDVDRW GGC-H20L Adapter: 0 ID: 1

Read mode : SecureUtilize accurate stream : YesDefeat audio cache : YesMake use of C2 pointers : No

Read offset correction : 667Overread into Lead-In and Lead-Out : NoFill up missing offset samples with silence : YesDelete leading and trailing silent blocks : NoNull samples used in CRC calculations : YesUsed interface : Native Win32 interface for Win NT & 2000Gap handling : Appended to previous track

Used output format : User Defined EncoderSelected bitrate : 1024 kBit/sQuality : HighAdd ID3 tag : NoCommand line compressor : C:\Program Files (x86)\Exact Audio Copy\FLAC\flac.exeAdditional command line options : -8 -V -T "ARTIST=%artist%" -T "TITLE=%title%" -T "ALBUM=%albumtitle%" -T "DATE=%year%" -T "TRACKNUMBER=%tracknr%" -T "GENRE=%genre%" -T "PERFORMER=%albuminterpret%" -T "COMPOSER=%composer%" %haslyrics%--tag-from-file=LYRICS="%lyricsfile%"%haslyrics% -T "ALBUMARTIST=%albumartist%" -T "DISCNUMBER=%cdnumber%" -T "TOTALDISCS=%totalcds%" -T "TOTALTRACKS=%numtracks%" -T "COMMENT=%comment%" %source% -o %dest%

TOC of the extracted CD

Track | Start | Length | Start sector | End sector --------------------------------------------------------- 1 | 0:00.00 | 3:50.25 | 0 | 17274 2 | 3:50.25 | 3:39.39 | 17275 | 33738 3 | 7:29.64 | 1:14.50 | 33739 | 39338 4 | 8:44.39 | 9:41.31 | 39339 | 82944 5 | 18:25.70 | 3:44.25 | 82945 | 99769 6 | 22:10.20 | 3:55.05 | 99770 | 117399 7 | 26:05.25 | 1:55.20 | 117400 | 126044 8 | 28:00.45 | 5:21.65 | 126045 | 150184 9 | 33:22.35 | 7:38.27 | 150185 | 184561 10 | 41:00.62 | 5:55.28 | 184562 | 211214 11 | 46:56.15 | 5:46.74 | 211215 | 237238 12 | 52:43.14 | 6:01.04 | 237239 | 264317 13 | 58:44.18 | 1:57.04 | 264318 | 273096 14 | 60:41.22 | 1:21.65 | 273097 | 279236 15 | 62:03.12 | 1:19.74 | 279237 | 285235 16 | 63:23.11 | 2:01.74 | 285236 | 294384 17 | 65:25.10 | 3:34.32 | 294385 | 310466

Track 1

Filename I:\My Music\Ripped\The Hobbit - An Unexpected Journey [Special Edition] (Disc 2)\01 - The Hidden Valley.wav

Pre-gap length 0:00:02.00

Peak level 90.1 % Extraction speed 4.4 X Track quality 100.0 % Test CRC CAD6FA80 Copy CRC CAD6FA80 Track not present in AccurateRip database Copy OK

Track 2

Filename I:\My Music\Ripped\The Hobbit - An Unexpected Journey [Special Edition] (Disc 2)\02 - Moon Runes [Extended Version].wav

Pre-gap length 0:00:01.10

Peak level 78.3 % Extraction speed 4.8 X Track quality 100.0 % Test CRC 9340D808 Copy CRC 9340D808 Track not present in AccurateRip database Copy OK

Track 3

Filename I:\My Music\Ripped\The Hobbit - An Unexpected Journey [Special Edition] (Disc 2)\03 - The Defiler.wav

Pre-gap length 0:00:02.11

Peak level 99.4 % Extraction speed 2.5 X Track quality 99.8 % Test CRC 35754B89 Copy CRC 35754B89 Track not present in AccurateRip database Copy OK

Track 4

Filename I:\My Music\Ripped\The Hobbit - An Unexpected Journey [Special Edition] (Disc 2)\04 - The White Council [Extended Version].wav

Pre-gap length 0:00:02.21

Peak level 94.3 % Extraction speed 6.1 X Track quality 100.0 % Test CRC BA014199 Copy CRC BA014199 Track not present in AccurateRip database Copy OK

Track 5

Filename I:\My Music\Ripped\The Hobbit - An Unexpected Journey [Special Edition] (Disc 2)\05 - Over Hill.wav

Pre-gap length 0:00:01.21

Peak level 99.0 % Extraction speed 6.0 X Track quality 100.0 % Test CRC E8C5240D Copy CRC E8C5240D Track not present in AccurateRip database Copy OK

Track 6

Filename I:\My Music\Ripped\The Hobbit - An Unexpected Journey [Special Edition] (Disc 2)\06 - A Thunder Battle.wav

Pre-gap length 0:00:02.31

Peak level 98.8 % Extraction speed 5.2 X Track quality 99.9 % Test CRC 2A87A30E Copy CRC 2A87A30E Track not present in AccurateRip database Copy OK

Track 7

Filename I:\My Music\Ripped\The Hobbit - An Unexpected Journey [Special Edition] (Disc 2)\07 - Under Hill.wav

Pre-gap length 0:00:01.47

Peak level 98.0 % Extraction speed 5.7 X Track quality 100.0 % Test CRC DBD975FD Copy CRC DBD975FD Track not present in AccurateRip database Copy OK

Track 8

Filename I:\My Music\Ripped\The Hobbit - An Unexpected Journey [Special Edition] (Disc 2)\08 - Riddles in the Dark.wav

Pre-gap length 0:00:02.09

Peak level 93.8 % Extraction speed 7.0 X Track quality 100.0 % Test CRC A0F66A34 Copy CRC A0F66A34 Track not present in AccurateRip database Copy OK

Track 9

Filename I:\My Music\Ripped\The Hobbit - An Unexpected Journey [Special Edition] (Disc 2)\09 - Brass Buttons.wav

Pre-gap length 0:00:01.17

Peak level 99.5 % Extraction speed 7.7 X Track quality 100.0 % Test CRC 8EF3BEAB Copy CRC 8EF3BEAB Track not present in AccurateRip database Copy OK

Track 10

Filename I:\My Music\Ripped\The Hobbit - An Unexpected Journey [Special Edition] (Disc 2)\10 - Out of the Frying-Pan.wav

Pre-gap length 0:00:01.08

Peak level 99.3 % Extraction speed 8.0 X Track quality 100.0 % Test CRC 745B5A16 Copy CRC 745B5A16 Track not present in AccurateRip database Copy OK

Track 11

Filename I:\My Music\Ripped\The Hobbit - An Unexpected Journey [Special Edition] (Disc 2)\11 - A Good Omen.wav

Pre-gap length 0:00:01.56

Peak level 98.7 % Extraction speed 8.3 X Track quality 100.0 % Test CRC F22C8D80 Copy CRC F22C8D80 Track not present in AccurateRip database Copy OK

Track 12

Filename I:\My Music\Ripped\The Hobbit - An Unexpected Journey [Special Edition] (Disc 2)\12 - Song of the Lonely Mountain [Extended Version] [performed by Neil Finn].wav

Pre-gap length 0:00:02.12

Peak level 74.9 % Extraction speed 8.3 X Track quality 100.0 % Test CRC 7FA0EB14 Copy CRC 7FA0EB14 Track not present in AccurateRip database Copy OK

Track 13

Filename I:\My Music\Ripped\The Hobbit - An Unexpected Journey [Special Edition] (Disc 2)\13 - Dreaming of Bag End.wav

Peak level 66.6 % Extraction speed 5.8 X Track quality 100.0 % Test CRC 12999731 Copy CRC 12999731 Track not present in AccurateRip database Copy OK

Track 14

Filename I:\My Music\Ripped\The Hobbit - An Unexpected Journey [Special Edition] (Disc 2)\14 - A Very Respectable Hobbit.wav

Pre-gap length 0:00:07.10

Peak level 84.0 % Extraction speed 3.9 X Track quality 100.0 % Test CRC 57D2E6A5 Copy CRC 57D2E6A5 Track not present in AccurateRip database Copy OK

Track 15

Filename I:\My Music\Ripped\The Hobbit - An Unexpected Journey [Special Edition] (Disc 2)\15 - Erebor.wav

Pre-gap length 0:00:01.17

Peak level 97.0 % Extraction speed 3.0 X Track quality 99.8 % Test CRC 84184A53 Copy CRC 84184A53 Track not present in AccurateRip database Copy OK

Track 16

Filename I:\My Music\Ripped\The Hobbit - An Unexpected Journey [Special Edition] (Disc 2)\16 - The Dwarf Lords.wav

Pre-gap length 0:00:02.11

Peak level 86.3 % Extraction speed 4.6 X Track quality 100.0 % Test CRC C73F798C Copy CRC C73F798C Track not present in AccurateRip database Copy OK

Track 17

Filename I:\My Music\Ripped\The Hobbit - An Unexpected Journey [Special Edition] (Disc 2)\17 - The Edge of the Wild.wav

Pre-gap length 0:00:03.41

Peak level 97.0 % Extraction speed 5.3 X Track quality 100.0 % Test CRC 6B90E6B9 Copy CRC 6B90E6B9 Track not present in AccurateRip database Copy OK

None of the tracks are present in the AccurateRip database

No errors occurred

End of status report

---- CUETools DB Plugin V2.1.3

[CTDB TOCID: 4z_uVWtHVyur_R8UDEaiuVDlGmU-] found, Submit result: 4z_uVWtHVyur_R8UDEaiuVDlGmU- has been confirmed[9ebb5593] (1/1) Accurately ripped

==== Log checksum 9CB296E1538851138D7362BB72812717BDB7BA425647E163E9075BCE3CC82011 ====
REM GENRE SoundtrackREM DATE 2012REM DISCID E2102B11REM COMMENT "ExactAudioCopy v1.0b3"FILE "01 - The Hidden Valley.wav" WAVE TRACK 01 AUDIO INDEX 01 00:00:00 TRACK 02 AUDIO INDEX 00 03:49:15FILE "02 - Moon Runes [Extended Version].wav" WAVE INDEX 01 00:00:00 TRACK 03 AUDIO INDEX 00 03:37:28FILE "03 - The Defiler.wav" WAVE INDEX 01 00:00:00 TRACK 04 AUDIO INDEX 00 01:12:29FILE "04 - The White Council [Extended Version].wav" WAVE INDEX 01 00:00:00 TRACK 05 AUDIO INDEX 00 09:40:10FILE "05 - Over Hill.wav" WAVE INDEX 01 00:00:00 TRACK 06 AUDIO INDEX 00 03:41:69FILE "06 - A Thunder Battle.wav" WAVE INDEX 01 00:00:00 TRACK 07 AUDIO INDEX 00 03:53:33FILE "07 - Under Hill.wav" WAVE INDEX 01 00:00:00 TRACK 08 AUDIO INDEX 00 01:53:11FILE "08 - Riddles in the Dark.wav" WAVE INDEX 01 00:00:00 TRACK 09 AUDIO INDEX 00 05:20:48FILE "09 - Brass Buttons.wav" WAVE INDEX 01 00:00:00 TRACK 10 AUDIO INDEX 00 07:37:19FILE "10 - Out of the Frying-Pan.wav" WAVE INDEX 01 00:00:00 TRACK 11 AUDIO INDEX 00 05:53:47FILE "11 - A Good Omen.wav" WAVE INDEX 01 00:00:00 TRACK 12 AUDIO INDEX 00 05:44:62FILE "12 - Song of the Lonely Mountain [Extended Version] [performed by Neil Finn].wav" WAVE INDEX 01 00:00:00FILE "13 - Dreaming of Bag End.wav" WAVE TRACK 13 AUDIO INDEX 01 00:00:00 TRACK 14 AUDIO INDEX 00 01:49:69FILE "14 - A Very Respectable Hobbit.wav" WAVE INDEX 01 00:00:00 TRACK 15 AUDIO INDEX 00 01:20:48FILE "15 - Erebor.wav" WAVE INDEX 01 00:00:00 TRACK 16 AUDIO INDEX 00 01:17:63FILE "16 - The Dwarf Lords.wav" WAVE INDEX 01 00:00:00 TRACK 17 AUDIO INDEX 00 01:58:33FILE "17 - The Edge of the Wild.wav" WAVE INDEX 01 00:00:00
[/spoiler]
[spoiler="The Hobbit: The Desolation of Smaug - 2013 [Standard Edition]"]
CD1
01. The Quest for Erebor (03:24)
02. Wilderland (04:56)
03. The House of Beorn (03:43)
04. Mirkwood (04:28)
05. Flies and Spiders (07:52)
06. The Woodland Realm (04:27)
07. Feast of Starlight (02:50)
08. Barrels Out of Bond (01:51)
09. The Forest River (04:55)
10. Bard, a Man of Lake-town (02:31)
11. The High Fells (02:37)
12. The Nature of Evil (03:20)
13. Protector of the Common Folk (03:37)
Продолжительность: 00:50:31CD2
01. Thrice Welcome (03:34)
02. Girion, Lord of Dale (03:34)
03. Durin's Folk (02:29)
04. In the Shadow of the Mountain (02:16)
05. A Spell of Concealment (02:52)
06. On the Doorstep (07:46)
07. The Courage of Hobbits (03:01)
08. Inside Information (03:49)
09. Kingsfoil (02:26)
10. A Liar and a Thief (03:41)
11. The Hunters (09:05)
12. Smaug (05:24)
13. My Armor Is Iron (05:16)
14. "I See Fire" (05:01)
Ed Sheeran
15. Beyond the Forest (05:28)
Продолжительность: 01:05:41
Exact Audio Copy V1.0 beta 3 from 29. August 2011

EAC extraction logfile from 12. October 2014, 15:49

Howard Shore / The Hobbit: The Desolation of Smaug

Used drive : hp BDDVDRW CT30K Adapter: 2 ID: 0

Read mode : SecureUtilize accurate stream : YesDefeat audio cache : NoMake use of C2 pointers : No

Read offset correction : 102Overread into Lead-In and Lead-Out : NoFill up missing offset samples with silence : YesDelete leading and trailing silent blocks : NoNull samples used in CRC calculations : YesUsed interface : Native Win32 interface for Win NT & 2000Gap handling : Appended to previous track

Used output format : User Defined EncoderSelected bitrate : 768 kBit/sQuality : HighAdd ID3 tag : NoCommand line compressor : C:\Program Files (x86)\Exact Audio Copy\FLAC\FLAC.EXEAdditional command line options : -6 -V -T "ARTIST=%artist%" -T "TITLE=%title%" -T "ALBUM=%albumtitle%" -T "DATE=%year%" -T "TRACKNUMBER=%tracknr%" -T "GENRE=%genre%" -T "COMMENT=%comment%" -T "BAND=%albuminterpret%" -T "ALBUMARTIST=%albuminterpret%" -T "COMPOSER=%composer%" %haslyrics%--tag-from-file=LYRICS="%lyricsfile%"%haslyrics% -T "DISCNUMBER=%cdnumber%" -T "TOTALDISCS=%totalcds%" -T "TOTALTRACKS=%numtracks%" %hascover%--picture="%coverfile%"%hascover% %source% -o %dest%

TOC of the extracted CD

Track | Start | Length | Start sector | End sector --------------------------------------------------------- 1 | 0:00.00 | 3:24.03 | 0 | 15302 2 | 3:24.03 | 4:56.29 | 15303 | 37531 3 | 8:20.32 | 3:42.71 | 37532 | 54252 4 | 12:03.28 | 4:28.11 | 54253 | 74363 5 | 16:31.39 | 7:51.69 | 74364 | 109757 6 | 24:23.33 | 4:27.04 | 109758 | 129786 7 | 28:50.37 | 2:49.63 | 129787 | 142524 8 | 31:40.25 | 1:50.38 | 142525 | 150812 9 | 33:30.63 | 4:54.57 | 150813 | 172919 10 | 38:25.45 | 2:30.62 | 172920 | 184231 11 | 40:56.32 | 2:37.09 | 184232 | 196015 12 | 43:33.41 | 3:20.37 | 196016 | 211052 13 | 46:54.03 | 3:37.04 | 211053 | 227331

Track 1

Filename C:\Users\Aaron\Desktop\Hobbit, The- The Desolation of Smaug (WaterTower Standard Edition, 2013)\Disc 1\01. The Quest for Erebor.wav

Pre-gap length 0:00:02.00

Peak level 97.2 % Extraction speed 2.2 X Track quality 100.0 % Copy CRC 782B5062 Accurately ripped (confidence 25) [ACB5F74B] (AR v2) Copy OK

Track 2

Filename C:\Users\Aaron\Desktop\Hobbit, The- The Desolation of Smaug (WaterTower Standard Edition, 2013)\Disc 1\02. Wilderland.wav

Pre-gap length 0:00:02.41

Peak level 97.5 % Extraction speed 2.4 X Track quality 99.9 % Copy CRC 40B845F3 Accurately ripped (confidence 26) [16221CCF] (AR v2) Copy OK

Track 3

Filename C:\Users\Aaron\Desktop\Hobbit, The- The Desolation of Smaug (WaterTower Standard Edition, 2013)\Disc 1\03. The House of Beorn.wav

Peak level 97.5 % Extraction speed 2.7 X Track quality 100.0 % Copy CRC 71CC2AEC Accurately ripped (confidence 26) [69C2748F] (AR v2) Copy OK

Track 4

Filename C:\Users\Aaron\Desktop\Hobbit, The- The Desolation of Smaug (WaterTower Standard Edition, 2013)\Disc 1\04. Mirkwood.wav

Peak level 88.9 % Extraction speed 2.9 X Track quality 100.0 % Copy CRC 2E1A950C Accurately ripped (confidence 26) [F08501A1] (AR v2) Copy OK

Track 5

Filename C:\Users\Aaron\Desktop\Hobbit, The- The Desolation of Smaug (WaterTower Standard Edition, 2013)\Disc 1\05. Flies and Spiders.wav

Peak level 99.9 % Extraction speed 3.2 X Track quality 100.0 % Copy CRC 5E02FA77 Accurately ripped (confidence 25) [077B8B8C] (AR v2) Copy OK

Track 6

Filename C:\Users\Aaron\Desktop\Hobbit, The- The Desolation of Smaug (WaterTower Standard Edition, 2013)\Disc 1\06. The Woodland Realm.wav

Peak level 97.1 % Extraction speed 3.5 X Track quality 100.0 % Copy CRC A536B1F9 Accurately ripped (confidence 25) [F45F714E] (AR v2) Copy OK

Track 7

Filename C:\Users\Aaron\Desktop\Hobbit, The- The Desolation of Smaug (WaterTower Standard Edition, 2013)\Disc 1\07. Feast of Starlight.wav

Peak level 48.0 % Extraction speed 3.5 X Track quality 100.0 % Copy CRC CB78926C Accurately ripped (confidence 25) [84D8BE54] (AR v2) Copy OK

Track 8

Filename C:\Users\Aaron\Desktop\Hobbit, The- The Desolation of Smaug (WaterTower Standard Edition, 2013)\Disc 1\08. Barrels Out of Bond.wav

Pre-gap length 0:00:02.36

Peak level 97.2 % Extraction speed 3.5 X Track quality 100.0 % Copy CRC E4804A9B Accurately ripped (confidence 25) [7F3BB6F5] (AR v2) Copy OK

Track 9

Filename C:\Users\Aaron\Desktop\Hobbit, The- The Desolation of Smaug (WaterTower Standard Edition, 2013)\Disc 1\09. The Forest River.wav

Peak level 97.5 % Extraction speed 3.8 X Track quality 100.0 % Copy CRC 7D08E367 Accurately ripped (confidence 25) [C3AF9FDB] (AR v2) Copy OK

Track 10

Filename C:\Users\Aaron\Desktop\Hobbit, The- The Desolation of Smaug (WaterTower Standard Edition, 2013)\Disc 1\10. Bard, a Man of Lake-town.wav

Peak level 87.9 % Extraction speed 4.0 X Track quality 100.0 % Copy CRC BDA529F0 Accurately ripped (confidence 25) [567EC7E9] (AR v2) Copy OK

Track 11

Filename C:\Users\Aaron\Desktop\Hobbit, The- The Desolation of Smaug (WaterTower Standard Edition, 2013)\Disc 1\11. The High Fells.wav

Peak level 97.5 % Extraction speed 4.0 X Track quality 100.0 % Copy CRC 1C3E5EB4 Accurately ripped (confidence 25) [0E40B18B] (AR v2) Copy OK

Track 12

Filename C:\Users\Aaron\Desktop\Hobbit, The- The Desolation of Smaug (WaterTower Standard Edition, 2013)\Disc 1\12. The Nature of Evil.wav

Peak level 97.6 % Extraction speed 4.0 X Track quality 99.9 % Copy CRC 7FEF7AB6 Accurately ripped (confidence 24) [CB986904] (AR v2) Copy OK

Track 13

Filename C:\Users\Aaron\Desktop\Hobbit, The- The Desolation of Smaug (WaterTower Standard Edition, 2013)\Disc 1\13. Protector of the Common Folk.wav

Peak level 91.3 % Extraction speed 4.1 X Track quality 100.0 % Copy CRC F975CA56 Accurately ripped (confidence 24) [8B4B5004] (AR v2) Copy OK

All tracks accurately ripped

No errors occurred

End of status report
REM GENRE SoundtrackREM DATE 2013REM DISCID A00BD70DREM COMMENT "ExactAudioCopy v1.0b3"PERFORMER "Howard Shore"TITLE "The Hobbit: The Desolation of Smaug"FILE "01. The Quest for Erebor.wav" WAVE TRACK 01 AUDIO TITLE "The Quest for Erebor" PERFORMER "Howard Shore" INDEX 01 00:00:00 TRACK 02 AUDIO TITLE "Wilderland" PERFORMER "Howard Shore" INDEX 00 03:21:37FILE "02. Wilderland.wav" WAVE INDEX 01 00:00:00FILE "03. The House of Beorn.wav" WAVE TRACK 03 AUDIO TITLE "The House of Beorn" PERFORMER "Howard Shore" INDEX 01 00:00:00FILE "04. Mirkwood.wav" WAVE TRACK 04 AUDIO TITLE "Mirkwood" PERFORMER "Howard Shore" INDEX 01 00:00:00FILE "05. Flies and Spiders.wav" WAVE TRACK 05 AUDIO TITLE "Flies and Spiders" PERFORMER "Howard Shore" INDEX 01 00:00:00FILE "06. The Woodland Realm.wav" WAVE TRACK 06 AUDIO TITLE "The Woodland Realm" PERFORMER "Howard Shore" INDEX 01 00:00:00FILE "07. Feast of Starlight.wav" WAVE TRACK 07 AUDIO TITLE "Feast of Starlight" PERFORMER "Howard Shore" INDEX 01 00:00:00 TRACK 08 AUDIO TITLE "Barrels Out of Bond" PERFORMER "Howard Shore" INDEX 00 02:47:27FILE "08. Barrels Out of Bond.wav" WAVE INDEX 01 00:00:00FILE "09. The Forest River.wav" WAVE TRACK 09 AUDIO TITLE "The Forest River" PERFORMER "Howard Shore" INDEX 01 00:00:00FILE "10. Bard, a Man of Lake-town.wav" WAVE TRACK 10 AUDIO TITLE "Bard, a Man of Lake-town" PERFORMER "Howard Shore" INDEX 01 00:00:00FILE "11. The High Fells.wav" WAVE TRACK 11 AUDIO TITLE "The High Fells" PERFORMER "Howard Shore" INDEX 01 00:00:00FILE "12. The Nature of Evil.wav" WAVE TRACK 12 AUDIO TITLE "The Nature of Evil" PERFORMER "Howard Shore" INDEX 01 00:00:00FILE "13. Protector of the Common Folk.wav" WAVE TRACK 13 AUDIO TITLE "Protector of the Common Folk" PERFORMER "Howard Shore" INDEX 01 00:00:00
Exact Audio Copy V1.0 beta 3 from 29. August 2011

EAC extraction logfile from 12. October 2014, 15:28

Howard Shore / The Hobbit: The Desolation of Smaug

Used drive : hp BDDVDRW CT30K Adapter: 2 ID: 0

Read mode : SecureUtilize accurate stream : YesDefeat audio cache : NoMake use of C2 pointers : No

Read offset correction : 102Overread into Lead-In and Lead-Out : NoFill up missing offset samples with silence : YesDelete leading and trailing silent blocks : NoNull samples used in CRC calculations : YesUsed interface : Native Win32 interface for Win NT & 2000Gap handling : Appended to previous track

Used output format : User Defined EncoderSelected bitrate : 768 kBit/sQuality : HighAdd ID3 tag : NoCommand line compressor : C:\Program Files (x86)\Exact Audio Copy\FLAC\FLAC.EXEAdditional command line options : -6 -V -T "ARTIST=%artist%" -T "TITLE=%title%" -T "ALBUM=%albumtitle%" -T "DATE=%year%" -T "TRACKNUMBER=%tracknr%" -T "GENRE=%genre%" -T "COMMENT=%comment%" -T "BAND=%albuminterpret%" -T "ALBUMARTIST=%albuminterpret%" -T "COMPOSER=%composer%" %haslyrics%--tag-from-file=LYRICS="%lyricsfile%"%haslyrics% -T "DISCNUMBER=%cdnumber%" -T "TOTALDISCS=%totalcds%" -T "TOTALTRACKS=%numtracks%" %hascover%--picture="%coverfile%"%hascover% %source% -o %dest%

TOC of the extracted CD

Track | Start | Length | Start sector | End sector --------------------------------------------------------- 1 | 0:00.00 | 3:34.31 | 0 | 16080 2 | 3:34.31 | 3:33.71 | 16081 | 32126 3 | 7:08.27 | 2:28.74 | 32127 | 43300 4 | 9:37.26 | 2:15.51 | 43301 | 53476 5 | 11:53.02 | 2:51.60 | 53477 | 66361 6 | 14:44.62 | 7:46.31 | 66362 | 101342 7 | 22:31.18 | 3:00.46 | 101343 | 114888 8 | 25:31.64 | 3:48.63 | 114889 | 132051 9 | 29:20.52 | 2:25.69 | 132052 | 142995 10 | 31:46.46 | 3:41.07 | 142996 | 159577 11 | 35:27.53 | 9:04.67 | 159578 | 200444 12 | 44:32.45 | 5:24.30 | 200445 | 224774 13 | 49:57.00 | 5:16.28 | 224775 | 248502 14 | 55:13.28 | 5:00.56 | 248503 | 271058 15 | 60:14.09 | 5:27.62 | 271059 | 295645

Track 1

Filename C:\Users\Aaron\Desktop\Hobbit, The- The Desolation of Smaug (WaterTower Standard Edition, 2013)\Disc 2\01. Thrice Welcome.wav

Pre-gap length 0:00:02.00

Peak level 97.3 % Extraction speed 1.8 X Track quality 99.8 % Copy CRC C9F140E1 Accurately ripped (confidence 27) [AB2FC318] (AR v2) Copy OK

Track 2

Filename C:\Users\Aaron\Desktop\Hobbit, The- The Desolation of Smaug (WaterTower Standard Edition, 2013)\Disc 2\02. Girion, Lord of Dale.wav

Peak level 97.2 % Extraction speed 2.1 X Track quality 99.8 % Copy CRC 7554701D Accurately ripped (confidence 27) [D14A3ABB] (AR v2) Copy OK

Track 3

Filename C:\Users\Aaron\Desktop\Hobbit, The- The Desolation of Smaug (WaterTower Standard Edition, 2013)\Disc 2\03. Durin's Folk.wav

Peak level 97.3 % Extraction speed 2.6 X Track quality 100.0 % Copy CRC 1ADC4116 Accurately ripped (confidence 27) [3A8E8758] (AR v2) Copy OK

Track 4

Filename C:\Users\Aaron\Desktop\Hobbit, The- The Desolation of Smaug (WaterTower Standard Edition, 2013)\Disc 2\04. In the Shadow of the Mountain.wav

Peak level 90.5 % Extraction speed 2.7 X Track quality 100.0 % Copy CRC DF3EB5AB Accurately ripped (confidence 27) [4494A358] (AR v2) Copy OK

Track 5

Filename C:\Users\Aaron\Desktop\Hobbit, The- The Desolation of Smaug (WaterTower Standard Edition, 2013)\Disc 2\05. A Spell of Concealment.wav

Pre-gap length 0:00:02.51

Peak level 98.6 % Extraction speed 2.8 X Track quality 100.0 % Copy CRC A5FC4F94 Accurately ripped (confidence 27) [83406A66] (AR v2) Copy OK

Track 6

Filename C:\Users\Aaron\Desktop\Hobbit, The- The Desolation of Smaug (WaterTower Standard Edition, 2013)\Disc 2\06. On the Doorstep.wav

Peak level 96.2 % Extraction speed 3.1 X Track quality 99.9 % Copy CRC 5FC0E020 Accurately ripped (confidence 27) [4B622072] (AR v2) Copy OK

Track 7

Filename C:\Users\Aaron\Desktop\Hobbit, The- The Desolation of Smaug (WaterTower Standard Edition, 2013)\Disc 2\07. The Courage of Hobbits.wav

Peak level 74.4 % Extraction speed 3.2 X Track quality 99.9 % Copy CRC 7CB62676 Accurately ripped (confidence 27) [851D7590] (AR v2) Copy OK

Track 8

Filename C:\Users\Aaron\Desktop\Hobbit, The- The Desolation of Smaug (WaterTower Standard Edition, 2013)\Disc 2\08. Inside Information.wav

Peak level 98.5 % Extraction speed 3.5 X Track quality 100.0 % Copy CRC 5BA322B9 Accurately ripped (confidence 27) [01431A15] (AR v2) Copy OK

Track 9

Filename C:\Users\Aaron\Desktop\Hobbit, The- The Desolation of Smaug (WaterTower Standard Edition, 2013)\Disc 2\09. Kingsfoil.wav

Peak level 44.0 % Extraction speed 3.5 X Track quality 100.0 % Copy CRC 21D5660D Accurately ripped (confidence 27) [9FC9598E] (AR v2) Copy OK

Track 10

Filename C:\Users\Aaron\Desktop\Hobbit, The- The Desolation of Smaug (WaterTower Standard Edition, 2013)\Disc 2\10. A Liar and a Thief.wav

Peak level 97.4 % Extraction speed 3.6 X Track quality 99.9 % Copy CRC 7389E319 Accurately ripped (confidence 27) [75AE0419] (AR v2) Copy OK

Track 11

Filename C:\Users\Aaron\Desktop\Hobbit, The- The Desolation of Smaug (WaterTower Standard Edition, 2013)\Disc 2\11. The Hunters.wav

Peak level 99.1 % Extraction speed 4.0 X Track quality 100.0 % Copy CRC 1D563DB9 Accurately ripped (confidence 27) [3FAF1847] (AR v2) Copy OK

Track 12

Filename C:\Users\Aaron\Desktop\Hobbit, The- The Desolation of Smaug (WaterTower Standard Edition, 2013)\Disc 2\12. Smaug.wav

Peak level 97.9 % Extraction speed 4.2 X Track quality 100.0 % Copy CRC D85C22EA Accurately ripped (confidence 27) [FDCF0E90] (AR v2) Copy OK

Track 13

Filename C:\Users\Aaron\Desktop\Hobbit, The- The Desolation of Smaug (WaterTower Standard Edition, 2013)\Disc 2\13. My Armor Is Iron.wav

Peak level 97.5 % Extraction speed 4.2 X Track quality 99.9 % Copy CRC A905AAC9 Accurately ripped (confidence 27) [76AF0B4F] (AR v2) Copy OK

Track 14

Filename C:\Users\Aaron\Desktop\Hobbit, The- The Desolation of Smaug (WaterTower Standard Edition, 2013)\Disc 2\14. I See Fire.wav

Peak level 56.4 % Extraction speed 4.4 X Track quality 99.9 % Copy CRC 038F074E Accurately ripped (confidence 28) [CD29024E] (AR v2) Copy OK

Track 15

Filename C:\Users\Aaron\Desktop\Hobbit, The- The Desolation of Smaug (WaterTower Standard Edition, 2013)\Disc 2\15. Beyond the Forest.wav

Peak level 97.3 % Extraction speed 4.6 X Track quality 100.0 % Copy CRC E6B18D9B Accurately ripped (confidence 27) [28FCA3DF] (AR v2) Copy OK

All tracks accurately ripped

No errors occurred

End of status report
REM GENRE SoundtrackREM DATE 2013REM DISCID DE0F650FREM COMMENT "ExactAudioCopy v1.0b3"PERFORMER "Howard Shore"TITLE "The Hobbit: The Desolation of Smaug"FILE "01. Thrice Welcome.wav" WAVE TRACK 01 AUDIO TITLE "Thrice Welcome" PERFORMER "Howard Shore" INDEX 01 00:00:00FILE "02. Girion, Lord of Dale.wav" WAVE TRACK 02 AUDIO TITLE "Girion, Lord of Dale" PERFORMER "Howard Shore" INDEX 01 00:00:00FILE "03. Durin's Folk.wav" WAVE TRACK 03 AUDIO TITLE "Durin's Folk" PERFORMER "Howard Shore" INDEX 01 00:00:00FILE "04. In the Shadow of the Mountain.wav" WAVE TRACK 04 AUDIO TITLE "In the Shadow of the Mountain" PERFORMER "Howard Shore" INDEX 01 00:00:00 TRACK 05 AUDIO TITLE "A Spell of Concealment" PERFORMER "Howard Shore" INDEX 00 02:13:00FILE "05. A Spell of Concealment.wav" WAVE INDEX 01 00:00:00FILE "06. On the Doorstep.wav" WAVE TRACK 06 AUDIO TITLE "On the Doorstep" PERFORMER "Howard Shore" INDEX 01 00:00:00FILE "07. The Courage of Hobbits.wav" WAVE TRACK 07 AUDIO TITLE "The Courage of Hobbits" PERFORMER "Howard Shore" INDEX 01 00:00:00FILE "08. Inside Information.wav" WAVE TRACK 08 AUDIO TITLE "Inside Information" PERFORMER "Howard Shore" INDEX 01 00:00:00FILE "09. Kingsfoil.wav" WAVE TRACK 09 AUDIO TITLE "Kingsfoil" PERFORMER "Howard Shore" INDEX 01 00:00:00FILE "10. A Liar and a Thief.wav" WAVE TRACK 10 AUDIO TITLE "A Liar and a Thief" PERFORMER "Howard Shore" INDEX 01 00:00:00FILE "11. The Hunters.wav" WAVE TRACK 11 AUDIO TITLE "The Hunters" PERFORMER "Howard Shore" INDEX 01 00:00:00FILE "12. Smaug.wav" WAVE TRACK 12 AUDIO TITLE "Smaug" PERFORMER "Howard Shore" INDEX 01 00:00:00FILE "13. My Armor Is Iron.wav" WAVE TRACK 13 AUDIO TITLE "My Armor Is Iron" PERFORMER "Howard Shore" INDEX 01 00:00:00FILE "14. I See Fire.wav" WAVE TRACK 14 AUDIO TITLE "I See Fire" PERFORMER "Ed Sheeran" INDEX 01 00:00:00FILE "15. Beyond the Forest.wav" WAVE TRACK 15 AUDIO TITLE "Beyond the Forest" PERFORMER "Howard Shore" INDEX 01 00:00:00
[/spoiler]
[spoiler="The Hobbit: The Desolation of Smaug - 2013 [Special Edition]"]
CD1
01. The Quest for Erebor [03:23]
02. Wilderland [04:56]
03. A Necromancer (Bonus Track) [02:54]
04. The House of Beorn (Extended Version) [04:52]
05. Mirkwood (Extended Version) [05:31]
06. Flies and Spiders (Extended Version) [09:35]
07. The Woodland Realm (Extended Version) [05:15]
08. Feast of Starlight [02:48]
09. Barrels Out of Bond [01:50]
10. The Forest River (Extended Version) [05:10]
11. Bard, a Man of Lake–town (Extended Version) [03:18]
12. The High Fells (Extended Version) [03:38]
13. The Nature of Evil [03:20]
14. Protector of the Common Folk [03:37]
Продолжительность: 01:00:12CD2
01. Thrice Welcome [03:34]
02. Girion, Lord of Dale (Extended Version) [04:15]
03. Durin's Folk (Extended Version) [03:04]
04. In the Shadow of the Mountain [02:15]
05. A Spell of Concealment (Extended Version) [03:22]
06. On the Doorstep [07:46]
07. The Courage of Hobbits [03:00]
08. Inside Information [03:48]
09. Kingsfoil [02:25]
10. A Liar and a Thief [03:41]
11. The Hunters (Extended Version) [09:55]
12. Smaug (Extended Version) [06:29]
13. My Armor Is Iron [05:16]
14. I See Fire written and performed by Ed Sheeran [05:00]
15. Beyond the Forest [05:27]
Продолжительность: 01:09:24
Exact Audio Copy V1.0 beta 3 from 29. August 2011

EAC extraction logfile from 6. December 2013, 17:38

Howard Shore / The Hobbit - The Desolation of Smaug [Special Edition - Disc 1]

Used drive : HL-DT-STBD-RE BH10LS38 Adapter: 2 ID: 0

Read mode : SecureUtilize accurate stream : YesDefeat audio cache : YesMake use of C2 pointers : No

Read offset correction : 667Overread into Lead-In and Lead-Out : NoFill up missing offset samples with silence : YesDelete leading and trailing silent blocks : NoNull samples used in CRC calculations : YesUsed interface : Native Win32 interface for Win NT & 2000Gap handling : Appended to previous track

Used output format : User Defined EncoderSelected bitrate : 768 kBit/sQuality : HighAdd ID3 tag : NoCommand line compressor : C:\Program Files (x86)\Exact Audio Copy\FLAC\FLAC.EXEAdditional command line options : -8 -V -T "ARTIST=%artist%" -T "TITLE=%title%" -T "ALBUM=%albumtitle%" -T "DATE=%year%" -T "TRACKNUMBER=%tracknr%" -T "GENRE=%genre%" -T "PERFORMER=%albuminterpret%" -T "COMPOSER=%composer%" %haslyrics%--tag-from-file=LYRICS="%lyricsfile%"%haslyrics% -T "ALBUMARTIST=%albumartist%" -T "ALBUM ARTIST=%albumartist%" -T "DISCNUMBER=%cdnumber%" -T "TOTALDISCS=%totalcds%" -T "TOTALTRACKS=%numtracks%" -T "COMMENT=%comment%" %source% -o %dest%

TOC of the extracted CD

Track | Start | Length | Start sector | End sector --------------------------------------------------------- 1 | 0:00.00 | 3:23.56 | 0 | 15280 2 | 3:23.56 | 4:56.31 | 15281 | 37511 3 | 8:20.12 | 2:54.51 | 37512 | 50612 4 | 11:14.63 | 4:52.40 | 50613 | 72552 5 | 16:07.28 | 5:31.26 | 72553 | 97403 6 | 21:38.54 | 9:35.38 | 97404 | 140566 7 | 31:14.17 | 5:14.73 | 140567 | 164189 8 | 36:29.15 | 2:48.00 | 164190 | 176789 9 | 39:17.15 | 1:50.02 | 176790 | 185041 10 | 41:07.17 | 5:10.47 | 185042 | 208338 11 | 46:17.64 | 3:18.31 | 208339 | 223219 12 | 49:36.20 | 3:38.63 | 223220 | 239632 13 | 53:15.08 | 3:20.60 | 239633 | 254692 14 | 56:35.68 | 3:37.04 | 254693 | 270971

Track 1

Filename C:\Rips\01 - The Quest For Erebor.wav

Pre-gap length 0:00:02.00

Peak level 97.2 % Extraction speed 1.1 X Track quality 100.0 % Test CRC ACFA42E4 Copy CRC ACFA42E4 Track not present in AccurateRip database Copy OK

Track 2

Filename C:\Rips\02 - Wilderland.wav

Pre-gap length 0:00:02.19

Peak level 97.5 % Extraction speed 1.3 X Track quality 100.0 % Test CRC E2EC3AB3 Copy CRC E2EC3AB3 Track not present in AccurateRip database Copy OK

Track 3

Filename C:\Rips\03 - A Necromancer (Bonus Track).wav

Pre-gap length 0:00:02.22

Peak level 97.7 % Extraction speed 1.3 X Track quality 100.0 % Test CRC 5231717E Copy CRC 5231717E Track not present in AccurateRip database Copy OK

Track 4

Filename C:\Rips\04 - The House Of Beorn (Extended Version).wav

Pre-gap length 0:00:01.73

Peak level 97.4 % Extraction speed 1.5 X Track quality 100.0 % Test CRC 211FCB56 Copy CRC 211FCB56 Track not present in AccurateRip database Copy OK

Track 5

Filename C:\Rips\05 - Mirkwood (Extended Version).wav

Pre-gap length 0:00:02.22

Peak level 88.3 % Extraction speed 1.5 X Track quality 99.9 % Test CRC C2E546F2 Copy CRC C2E546F2 Track not present in AccurateRip database Copy OK

Track 6

Filename C:\Rips\06 - Flies And Spiders (Extended Version).wav

Pre-gap length 0:00:02.16

Peak level 98.7 % Extraction speed 1.9 X Track quality 100.0 % Test CRC 4726838D Copy CRC 4726838D Track not present in AccurateRip database Copy OK

Track 7

Filename C:\Rips\07 - The Woodland Realm (Extended Version).wav

Pre-gap length 0:00:02.27

Peak level 97.2 % Extraction speed 1.9 X Track quality 100.0 % Test CRC 799B4B7D Copy CRC 799B4B7D Track not present in AccurateRip database Copy OK

Track 8

Filename C:\Rips\08 - Feast Of Starlight.wav

Pre-gap length 0:00:02.18

Peak level 48.0 % Extraction speed 1.5 X Track quality 99.9 % Test CRC E1766484 Copy CRC E1766484 Track not present in AccurateRip database Copy OK

Track 9

Filename C:\Rips\09 - Barrels Out Of Bond.wav

Pre-gap length 0:00:00.48

Peak level 97.2 % Extraction speed 1.7 X Track quality 100.0 % Test CRC 0D348BDA Copy CRC 0D348BDA Track not present in AccurateRip database Copy OK

Track 10

Filename C:\Rips\10 - The Forest River (Extended Version).wav

Pre-gap length 0:00:01.04

Peak level 97.6 % Extraction speed 2.1 X Track quality 100.0 % Test CRC AAF58E56 Copy CRC AAF58E56 Track not present in AccurateRip database Copy OK

Track 11

Filename C:\Rips\11 - Bard, A Man Of Lake-Town (Extended Version).wav

Pre-gap length 0:00:02.39

Peak level 95.3 % Extraction speed 2.1 X Track quality 100.0 % Test CRC 64990EC6 Copy CRC 64990EC6 Track not present in AccurateRip database Copy OK

Track 12

Filename C:\Rips\12 - The High Fells (Extended Version).wav

Pre-gap length 0:00:02.37

Peak level 97.4 % Extraction speed 2.1 X Track quality 100.0 % Test CRC A3096606 Copy CRC A3096606 Track not present in AccurateRip database Copy OK

Track 13

Filename C:\Rips\13 - The Nature Of Evil.wav

Pre-gap length 0:00:02.03

Peak level 97.5 % Extraction speed 2.2 X Track quality 100.0 % Test CRC 9B69A31A Copy CRC 9B69A31A Track not present in AccurateRip database Copy OK

Track 14

Filename C:\Rips\14 - Protector Of The Common Folk.wav

Pre-gap length 0:00:03.26

Peak level 91.2 % Extraction speed 2.2 X Track quality 100.0 % Test CRC 4AFCE62F Copy CRC 4AFCE62F Track not present in AccurateRip database Copy OK

None of the tracks are present in the AccurateRip database

No errors occurred

End of status report

==== Log checksum 175375D0FA3D834836836D59EB79EDEE87D0D207DF7A1561F59213DD6E10131D ====
REM GENRE SoundtrackREM DATE 2013REM DISCID E70E1C0EREM COMMENT "ExactAudioCopy v1.0b3"FILE "01 - The Quest For Erebor.wav" WAVE TRACK 01 AUDIO INDEX 01 00:00:00 TRACK 02 AUDIO INDEX 00 03:21:37FILE "02 - Wilderland.wav" WAVE INDEX 01 00:00:00 TRACK 03 AUDIO INDEX 00 04:54:09FILE "03 - A Necromancer (Bonus Track).wav" WAVE INDEX 01 00:00:00 TRACK 04 AUDIO INDEX 00 02:52:53FILE "04 - The House Of Beorn (Extended Version).wav" WAVE INDEX 01 00:00:00 TRACK 05 AUDIO INDEX 00 04:50:18FILE "05 - Mirkwood (Extended Version).wav" WAVE INDEX 01 00:00:00 TRACK 06 AUDIO INDEX 00 05:29:10FILE "06 - Flies And Spiders (Extended Version).wav" WAVE INDEX 01 00:00:00 TRACK 07 AUDIO INDEX 00 09:33:11FILE "07 - The Woodland Realm (Extended Version).wav" WAVE INDEX 01 00:00:00 TRACK 08 AUDIO INDEX 00 05:12:55FILE "08 - Feast Of Starlight.wav" WAVE INDEX 01 00:00:00 TRACK 09 AUDIO INDEX 00 02:47:27FILE "09 - Barrels Out Of Bond.wav" WAVE INDEX 01 00:00:00 TRACK 10 AUDIO INDEX 00 01:48:73FILE "10 - The Forest River (Extended Version).wav" WAVE INDEX 01 00:00:00 TRACK 11 AUDIO INDEX 00 05:08:08FILE "11 - Bard, A Man Of Lake-Town (Extended Version).wav" WAVE INDEX 01 00:00:00 TRACK 12 AUDIO INDEX 00 03:15:69FILE "12 - The High Fells (Extended Version).wav" WAVE INDEX 01 00:00:00 TRACK 13 AUDIO INDEX 00 03:36:60FILE "13 - The Nature Of Evil.wav" WAVE INDEX 01 00:00:00 TRACK 14 AUDIO INDEX 00 03:17:34FILE "14 - Protector Of The Common Folk.wav" WAVE INDEX 01 00:00:00
Exact Audio Copy V1.0 beta 3 from 29. August 2011

EAC extraction logfile from 6. December 2013, 19:03

Howard Shore / The Hobbit - The Desolation of Smaug [Special Edition - Disc 2]

Used drive : HL-DT-STBD-RE BH10LS38 Adapter: 2 ID: 0

Read mode : SecureUtilize accurate stream : YesDefeat audio cache : YesMake use of C2 pointers : No

Read offset correction : 667Overread into Lead-In and Lead-Out : NoFill up missing offset samples with silence : YesDelete leading and trailing silent blocks : NoNull samples used in CRC calculations : YesUsed interface : Native Win32 interface for Win NT & 2000Gap handling : Appended to previous track

Used output format : User Defined EncoderSelected bitrate : 768 kBit/sQuality : HighAdd ID3 tag : NoCommand line compressor : C:\Program Files (x86)\Exact Audio Copy\FLAC\FLAC.EXEAdditional command line options : -8 -V -T "ARTIST=%artist%" -T "TITLE=%title%" -T "ALBUM=%albumtitle%" -T "DATE=%year%" -T "TRACKNUMBER=%tracknr%" -T "GENRE=%genre%" -T "PERFORMER=%albuminterpret%" -T "COMPOSER=%composer%" %haslyrics%--tag-from-file=LYRICS="%lyricsfile%"%haslyrics% -T "ALBUMARTIST=%albumartist%" -T "ALBUM ARTIST=%albumartist%" -T "DISCNUMBER=%cdnumber%" -T "TOTALDISCS=%totalcds%" -T "TOTALTRACKS=%numtracks%" -T "COMMENT=%comment%" %source% -o %dest%

TOC of the extracted CD

Track | Start | Length | Start sector | End sector --------------------------------------------------------- 1 | 0:00.00 | 3:34.22 | 0 | 16071 2 | 3:34.22 | 4:15.60 | 16072 | 35256 3 | 7:50.07 | 3:04.34 | 35257 | 49090 4 | 10:54.41 | 2:15.53 | 49091 | 59268 5 | 13:10.19 | 3:22.44 | 59269 | 74462 6 | 16:32.63 | 7:46.24 | 74463 | 109436 7 | 24:19.12 | 3:00.23 | 109437 | 122959 8 | 27:19.35 | 3:48.21 | 122960 | 140080 9 | 31:07.56 | 2:25.69 | 140081 | 151024 10 | 33:33.50 | 3:41.17 | 151025 | 167616 11 | 37:14.67 | 9:55.41 | 167617 | 212282 12 | 47:10.33 | 6:29.49 | 212283 | 241506 13 | 53:40.07 | 5:16.17 | 241507 | 265223 14 | 58:56.24 | 5:00.63 | 265224 | 287786 15 | 63:57.12 | 5:27.62 | 287787 | 312373

Track 1

Filename C:\Rips\01 - Howard Shore - Thrice Welcome.wav

Pre-gap length 0:00:02.00

Peak level 97.3 % Extraction speed 1.1 X Track quality 100.0 % Test CRC A442594D Copy CRC A442594D Track not present in AccurateRip database Copy OK

Track 2

Filename C:\Rips\02 - Howard Shore - Girion, Lord Of Dale (Extended Version).wav

Pre-gap length 0:00:02.04

Peak level 97.2 % Extraction speed 1.2 X Track quality 100.0 % Test CRC FF679453 Copy CRC FF679453 Track not present in AccurateRip database Copy OK

Track 3

Filename C:\Rips\03 - Howard Shore - Durin's Folk (Extended Version).wav

Pre-gap length 0:00:02.64

Peak level 97.2 % Extraction speed 1.3 X Track quality 100.0 % Test CRC 0FDB2656 Copy CRC 0FDB2656 Track not present in AccurateRip database Copy OK

Track 4

Filename C:\Rips\04 - Howard Shore - In The Shadow Of The Mountain.wav

Pre-gap length 0:00:03.22

Peak level 90.5 % Extraction speed 1.2 X Track quality 100.0 % Test CRC C177AB21 Copy CRC C177AB21 Track not present in AccurateRip database Copy OK

Track 5

Filename C:\Rips\05 - Howard Shore - A Spell Of Concealment (Extended Version).wav

Pre-gap length 0:00:02.53

Peak level 98.5 % Extraction speed 1.4 X Track quality 100.0 % Test CRC 6C6BA71E Copy CRC 6C6BA71E Track not present in AccurateRip database Copy OK

Track 6

Filename C:\Rips\06 - Howard Shore - On The Doorstep.wav

Pre-gap length 0:00:00.58

Peak level 96.3 % Extraction speed 1.7 X Track quality 100.0 % Test CRC 447C68BD Copy CRC 447C68BD Track not present in AccurateRip database Copy OK

Track 7

Filename C:\Rips\07 - Howard Shore - The Courage Of Hobbits.wav

Pre-gap length 0:00:00.10

Peak level 74.4 % Extraction speed 1.6 X Track quality 100.0 % Test CRC E74830E3 Copy CRC E74830E3 Track not present in AccurateRip database Copy OK

Track 8

Filename C:\Rips\08 - Howard Shore - Inside Information.wav

Pre-gap length 0:00:00.25

Peak level 98.5 % Extraction speed 1.7 X Track quality 100.0 % Test CRC 92D785E4 Copy CRC 92D785E4 Track not present in AccurateRip database Copy OK

Track 9

Filename C:\Rips\09 - Howard Shore - Kingsfoil.wav

Pre-gap length 0:00:01.74

Peak level 44.0 % Extraction speed 1.7 X Track quality 100.0 % Test CRC AAEEF552 Copy CRC AAEEF552 Track not present in AccurateRip database Copy OK

Track 10

Filename C:\Rips\10 - Howard Shore - A Liar And A Thief.wav

Pre-gap length 0:00:03.21

Peak level 97.4 % Extraction speed 1.8 X Track quality 100.0 % Test CRC 698E0E42 Copy CRC 698E0E42 Track not present in AccurateRip database Copy OK

Track 11

Filename C:\Rips\11 - Howard Shore - The Hunters (Extended Version).wav

Pre-gap length 0:00:01.31

Peak level 98.8 % Extraction speed 2.2 X Track quality 100.0 % Test CRC C39B8277 Copy CRC C39B8277 Track not present in AccurateRip database Copy OK

Track 12

Filename C:\Rips\12 - Howard Shore - Smaug (Extended Version).wav

Pre-gap length 0:00:04.23

Peak level 97.8 % Extraction speed 2.2 X Track quality 100.0 % Test CRC F691E92B Copy CRC F691E92B Track not present in AccurateRip database Copy OK

Track 13

Filename C:\Rips\13 - Howard Shore - My Armor Is Iron.wav

Pre-gap length 0:00:02.60

Peak level 97.5 % Extraction speed 2.3 X Track quality 100.0 % Test CRC E9296E97 Copy CRC E9296E97 Track not present in AccurateRip database Copy OK

Track 14

Filename C:\Rips\14 - Ed Sheeran - I See Fire.wav

Pre-gap length 0:00:04.55

Peak level 56.4 % Extraction speed 2.3 X Track quality 100.0 % Test CRC 54887BAB Copy CRC 54887BAB Track not present in AccurateRip database Copy OK

Track 15

Filename C:\Rips\15 - Howard Shore - Beyond The Forest.wav

Pre-gap length 0:00:02.51

Peak level 97.4 % Extraction speed 2.5 X Track quality 100.0 % Test CRC 10BC11AC Copy CRC 10BC11AC Track not present in AccurateRip database Copy OK

None of the tracks are present in the AccurateRip database

No errors occurred

End of status report

==== Log checksum 80F37FCDDDA529E7E4969F7AF6965BFA42404574DBC6E226B004B8952DB0055D ====
REM GENRE SoundtrackREM DATE 2013REM DISCID D810440FREM COMMENT "ExactAudioCopy v1.0b3"FILE "01 - Howard Shore - Thrice Welcome.wav" WAVE TRACK 01 AUDIO INDEX 01 00:00:00 TRACK 02 AUDIO INDEX 00 03:32:18FILE "02 - Howard Shore - Girion, Lord Of Dale (Extended Version).wav" WAVE INDEX 01 00:00:00 TRACK 03 AUDIO INDEX 00 04:12:71FILE "03 - Howard Shore - Durin's Folk (Extended Version).wav" WAVE INDEX 01 00:00:00 TRACK 04 AUDIO INDEX 00 03:01:12FILE "04 - Howard Shore - In The Shadow Of The Mountain.wav" WAVE INDEX 01 00:00:00 TRACK 05 AUDIO INDEX 00 02:13:00FILE "05 - Howard Shore - A Spell Of Concealment (Extended Version).wav" WAVE INDEX 01 00:00:00 TRACK 06 AUDIO INDEX 00 03:21:61FILE "06 - Howard Shore - On The Doorstep.wav" WAVE INDEX 01 00:00:00 TRACK 07 AUDIO INDEX 00 07:46:14FILE "07 - Howard Shore - The Courage Of Hobbits.wav" WAVE INDEX 01 00:00:00 TRACK 08 AUDIO INDEX 00 02:59:73FILE "08 - Howard Shore - Inside Information.wav" WAVE INDEX 01 00:00:00 TRACK 09 AUDIO INDEX 00 03:46:22FILE "09 - Howard Shore - Kingsfoil.wav" WAVE INDEX 01 00:00:00 TRACK 10 AUDIO INDEX 00 02:22:48FILE "10 - Howard Shore - A Liar And A Thief.wav" WAVE INDEX 01 00:00:00 TRACK 11 AUDIO INDEX 00 03:39:61FILE "11 - Howard Shore - The Hunters (Extended Version).wav" WAVE INDEX 01 00:00:00 TRACK 12 AUDIO INDEX 00 09:51:18FILE "12 - Howard Shore - Smaug (Extended Version).wav" WAVE INDEX 01 00:00:00 TRACK 13 AUDIO INDEX 00 06:26:64FILE "13 - Howard Shore - My Armor Is Iron.wav" WAVE INDEX 01 00:00:00 TRACK 14 AUDIO INDEX 00 05:11:37FILE "14 - Ed Sheeran - I See Fire.wav" WAVE INDEX 01 00:00:00 TRACK 15 AUDIO INDEX 00 04:58:12FILE "15 - Howard Shore - Beyond The Forest.wav" WAVE INDEX 01 00:00:00
[/spoiler]
[spoiler="The Hobbit: The Battle of the Five Armies - 2014 [Standard Edition]"]
CD1
01. Fire And Water (05:59)
02. Shores Of The Long Lake (04:01)
03. Beyond Sorrow And Grief (02:50)
04. Guardians Of The Three (05:14)
05. The Ruins Of Dale (03:40)
06. The Gathering Of The Clouds (04:07)
07. Mithril (03:09)
08. Bred For War (03:21)
09. A Thief In The Night (04:14)
10. The Clouds Burst (04:13)
11. Battle For The Mountain (04:41)
Продолжительность: 00:45:28CD2
01. The Darkest Hour (05:34)
02. Sons Of Durin (04:25)
03. The Fallen (04:57)
04. Ravenhill (05:48)
05. To The Death (05:14)
06. Courage And Wisdom (05:10)
07. The Return Journey (04:18)
08. There And Back Again (04:20)
09. The Last Goodbye (04:07)
performed by Billy Boyd
10. Ironfoot (05:05)
Продолжительность: 00:48:58
Exact Audio Copy V1.0 beta 3 from 29. August 2011

EAC extraction logfile from 11. December 2014, 19:54

Howard Shore / The Hobbit: The Batte of the Five Armies

Used drive : hp BDDVDRW CT30K Adapter: 2 ID: 0

Read mode : SecureUtilize accurate stream : YesDefeat audio cache : NoMake use of C2 pointers : No

Read offset correction : 102Overread into Lead-In and Lead-Out : NoFill up missing offset samples with silence : YesDelete leading and trailing silent blocks : NoNull samples used in CRC calculations : YesUsed interface : Native Win32 interface for Win NT & 2000Gap handling : Appended to previous track

Used output format : User Defined EncoderSelected bitrate : 768 kBit/sQuality : HighAdd ID3 tag : NoCommand line compressor : C:\Program Files (x86)\Exact Audio Copy\FLAC\FLAC.EXEAdditional command line options : -6 -V -T "ARTIST=%artist%" -T "TITLE=%title%" -T "ALBUM=%albumtitle%" -T "DATE=%year%" -T "TRACKNUMBER=%tracknr%" -T "GENRE=%genre%" -T "COMMENT=%comment%" -T "BAND=%albuminterpret%" -T "ALBUMARTIST=%albuminterpret%" -T "COMPOSER=%composer%" %haslyrics%--tag-from-file=LYRICS="%lyricsfile%"%haslyrics% -T "DISCNUMBER=%cdnumber%" -T "TOTALDISCS=%totalcds%" -T "TOTALTRACKS=%numtracks%" %hascover%--picture="%coverfile%"%hascover% %source% -o %dest%

TOC of the extracted CD

Track | Start | Length | Start sector | End sector --------------------------------------------------------- 1 | 0:00.00 | 5:58.54 | 0 | 26903 2 | 5:58.54 | 4:01.10 | 26904 | 44988 3 | 9:59.64 | 2:50.36 | 44989 | 57774 4 | 12:50.25 | 5:14.06 | 57775 | 81330 5 | 18:04.31 | 3:39.46 | 81331 | 97801 6 | 21:44.02 | 4:07.00 | 97802 | 116326 7 | 25:51.02 | 3:08.43 | 116327 | 130469 8 | 28:59.45 | 3:20.39 | 130470 | 145508 9 | 32:20.09 | 4:14.31 | 145509 | 164589 10 | 36:34.40 | 4:13.20 | 164590 | 183584 11 | 40:47.60 | 4:40.72 | 183585 | 204656

Track 1

Filename C:\Users\Aaron\Desktop\Hobbit, The- The Battle of the Five Armies (WaterTower Standard Edition, 2014)\Disc 1\01. Fire and Water.wav

Pre-gap length 0:00:02.00

Peak level 98.2 % Extraction speed 1.4 X Track quality 99.5 % Copy CRC 75E1F7AD Track not present in AccurateRip database Copy OK

Track 2

Filename C:\Users\Aaron\Desktop\Hobbit, The- The Battle of the Five Armies (WaterTower Standard Edition, 2014)\Disc 1\02. Shores of the Long Lake.wav

Pre-gap length 0:00:17.30

Peak level 97.4 % Extraction speed 2.7 X Track quality 100.0 % Copy CRC 8032BA23 Track not present in AccurateRip database Copy OK

Track 3

Filename C:\Users\Aaron\Desktop\Hobbit, The- The Battle of the Five Armies (WaterTower Standard Edition, 2014)\Disc 1\03. Beyond Sorrow and Grief.wav

Pre-gap length 0:01:57.57

Peak level 95.4 % Extraction speed 2.7 X Track quality 100.0 % Copy CRC 6698D782 Track not present in AccurateRip database Copy OK

Track 4

Filename C:\Users\Aaron\Desktop\Hobbit, The- The Battle of the Five Armies (WaterTower Standard Edition, 2014)\Disc 1\04. Guardians of the Three.wav

Pre-gap length 0:00:15.69

Peak level 97.7 % Extraction speed 2.9 X Track quality 99.9 % Copy CRC 4301CBB7 Track not present in AccurateRip database Copy OK

Track 5

Filename C:\Users\Aaron\Desktop\Hobbit, The- The Battle of the Five Armies (WaterTower Standard Edition, 2014)\Disc 1\05. The Ruins of Dale.wav

Pre-gap length 0:00:01.53

Peak level 97.4 % Extraction speed 3.1 X Track quality 100.0 % Copy CRC 8648F540 Track not present in AccurateRip database Copy OK

Track 6

Filename C:\Users\Aaron\Desktop\Hobbit, The- The Battle of the Five Armies (WaterTower Standard Edition, 2014)\Disc 1\06. The Gathering of the Clouds.wav

Pre-gap length 0:00:00.33

Peak level 97.5 % Extraction speed 3.2 X Track quality 99.9 % Copy CRC 4E5DDAD1 Track not present in AccurateRip database Copy OK

Track 7

Filename C:\Users\Aaron\Desktop\Hobbit, The- The Battle of the Five Armies (WaterTower Standard Edition, 2014)\Disc 1\07. Mithril.wav

Pre-gap length 0:00:26.03

Peak level 97.5 % Extraction speed 3.3 X Track quality 99.9 % Copy CRC 5AFACBB6 Track not present in AccurateRip database Copy OK

Track 8

Filename C:\Users\Aaron\Desktop\Hobbit, The- The Battle of the Five Armies (WaterTower Standard Edition, 2014)\Disc 1\08. Bred for War.wav

Peak level 98.5 % Extraction speed 3.5 X Track quality 99.9 % Copy CRC 796185FD Track not present in AccurateRip database Copy OK

Track 9

Filename C:\Users\Aaron\Desktop\Hobbit, The- The Battle of the Five Armies (WaterTower Standard Edition, 2014)\Disc 1\09. A Thief in the Night.wav

Peak level 97.4 % Extraction speed 3.8 X Track quality 100.0 % Copy CRC CA762E52 Track not present in AccurateRip database Copy OK

Track 10

Filename C:\Users\Aaron\Desktop\Hobbit, The- The Battle of the Five Armies (WaterTower Standard Edition, 2014)\Disc 1\10. The Clouds Burst.wav

Pre-gap length 0:00:00.73

Peak level 97.5 % Extraction speed 3.6 X Track quality 99.9 % Copy CRC 5E78581D Track not present in AccurateRip database Copy OK

Track 11

Filename C:\Users\Aaron\Desktop\Hobbit, The- The Battle of the Five Armies (WaterTower Standard Edition, 2014)\Disc 1\11. Battle for the Mountain.wav

Pre-gap length 0:00:00.72

Peak level 97.7 % Extraction speed 4.1 X Track quality 100.0 % Copy CRC C38798BA Track not present in AccurateRip database Copy OK

None of the tracks are present in the AccurateRip database

No errors occurred

End of status report
REM GENRE SoundtrackREM DATE 2014REM DISCID 8B0AA80BREM COMMENT "ExactAudioCopy v1.0b3"PERFORMER "Howard Shore"TITLE "The Hobbit: The Batte of the Five Armies"FILE "01. Fire and Water.wav" WAVE TRACK 01 AUDIO TITLE "Fire and Water" PERFORMER "Howard Shore" INDEX 01 00:00:00 TRACK 02 AUDIO TITLE "Shores of the Long Lake" PERFORMER "Howard Shore" INDEX 00 05:41:24FILE "02. Shores of the Long Lake.wav" WAVE INDEX 01 00:00:00 TRACK 03 AUDIO TITLE "Beyond Sorrow and Grief" PERFORMER "Howard Shore" INDEX 00 02:03:28FILE "03. Beyond Sorrow and Grief.wav" WAVE INDEX 01 00:00:00 TRACK 04 AUDIO TITLE "Guardians of the Three" PERFORMER "Howard Shore" INDEX 00 02:34:42FILE "04. Guardians of the Three.wav" WAVE INDEX 01 00:00:00 TRACK 05 AUDIO TITLE "The Ruins of Dale" PERFORMER "Howard Shore" INDEX 00 05:12:28FILE "05. The Ruins of Dale.wav" WAVE INDEX 01 00:00:00 TRACK 06 AUDIO TITLE "The Gathering of the Clouds" PERFORMER "Howard Shore" INDEX 00 03:39:13FILE "06. The Gathering of the Clouds.wav" WAVE INDEX 01 00:00:00 TRACK 07 AUDIO TITLE "Mithril" PERFORMER "Howard Shore" INDEX 00 03:40:72FILE "07. Mithril.wav" WAVE INDEX 01 00:00:00FILE "08. Bred for War.wav" WAVE TRACK 08 AUDIO TITLE "Bred for War" PERFORMER "Howard Shore" INDEX 01 00:00:00FILE "09. A Thief in the Night.wav" WAVE TRACK 09 AUDIO TITLE "A Thief in the Night" PERFORMER "Howard Shore" INDEX 01 00:00:00 TRACK 10 AUDIO TITLE "The Clouds Burst" PERFORMER "Howard Shore" INDEX 00 04:13:33FILE "10. The Clouds Burst.wav" WAVE INDEX 01 00:00:00 TRACK 11 AUDIO TITLE "Battle for the Mountain" PERFORMER "Howard Shore" INDEX 00 04:12:23FILE "11. Battle for the Mountain.wav" WAVE INDEX 01 00:00:00
Exact Audio Copy V1.0 beta 3 from 29. August 2011

EAC extraction logfile from 9. December 2014, 17:48

Howard Shore / The Hobbit - The Batte of the Five Armies CD2

Used drive : hp BDDVDRW CT30K Adapter: 2 ID: 0

Read mode : SecureUtilize accurate stream : YesDefeat audio cache : NoMake use of C2 pointers : No

Read offset correction : 102Overread into Lead-In and Lead-Out : NoFill up missing offset samples with silence : YesDelete leading and trailing silent blocks : NoNull samples used in CRC calculations : YesUsed interface : Native Win32 interface for Win NT & 2000Gap handling : Appended to previous track

Used output format : User Defined EncoderSelected bitrate : 768 kBit/sQuality : HighAdd ID3 tag : NoCommand line compressor : C:\Program Files (x86)\Exact Audio Copy\FLAC\FLAC.EXEAdditional command line options : -6 -V -T "ARTIST=%artist%" -T "TITLE=%title%" -T "ALBUM=%albumtitle%" -T "DATE=%year%" -T "TRACKNUMBER=%tracknr%" -T "GENRE=%genre%" -T "COMMENT=%comment%" -T "BAND=%albuminterpret%" -T "ALBUMARTIST=%albuminterpret%" -T "COMPOSER=%composer%" %haslyrics%--tag-from-file=LYRICS="%lyricsfile%"%haslyrics% -T "DISCNUMBER=%cdnumber%" -T "TOTALDISCS=%totalcds%" -T "TOTALTRACKS=%numtracks%" %hascover%--picture="%coverfile%"%hascover% %source% -o %dest%

TOC of the extracted CD

Track | Start | Length | Start sector | End sector --------------------------------------------------------- 1 | 0:00.00 | 5:33.68 | 0 | 25042 2 | 5:33.68 | 4:24.71 | 25043 | 44913 3 | 9:58.64 | 4:56.38 | 44914 | 67151 4 | 14:55.27 | 5:47.74 | 67152 | 93250 5 | 20:43.26 | 5:13.61 | 93251 | 116786 6 | 25:57.12 | 5:10.07 | 116787 | 140043 7 | 31:07.19 | 4:18.11 | 140044 | 159404 8 | 35:25.30 | 4:20.13 | 159405 | 178917 9 | 39:45.43 | 4:07.02 | 178918 | 197444 10 | 43:52.45 | 5:05.36 | 197445 | 220355

Track 1

Filename C:\Users\Aaron\Desktop\Hobbit, The- The Battle of the Five Armies (WaterTower Standard Edition, 2014)\Disc 2\01. The Darkest Hour.wav

Pre-gap length 0:00:02.00

Peak level 97.8 % Extraction speed 1.5 X Track quality 99.6 % Copy CRC 0BDA31B4 Track not present in AccurateRip database Copy OK

Track 2

Filename C:\Users\Aaron\Desktop\Hobbit, The- The Battle of the Five Armies (WaterTower Standard Edition, 2014)\Disc 2\02. Sons of Durin.wav

Pre-gap length 0:00:36.23

Peak level 97.9 % Extraction speed 2.6 X Track quality 99.9 % Copy CRC 28B018E4 Track not present in AccurateRip database Copy OK

Track 3

Filename C:\Users\Aaron\Desktop\Hobbit, The- The Battle of the Five Armies (WaterTower Standard Edition, 2014)\Disc 2\03. The Fallen.wav

Pre-gap length 0:00:00.59

Peak level 97.4 % Extraction speed 2.9 X Track quality 100.0 % Copy CRC 4632DE0C Track not present in AccurateRip database Copy OK

Track 4

Filename C:\Users\Aaron\Desktop\Hobbit, The- The Battle of the Five Armies (WaterTower Standard Edition, 2014)\Disc 2\04. Ravenhill.wav

Pre-gap length 0:00:01.18

Peak level 97.9 % Extraction speed 3.1 X Track quality 100.0 % Copy CRC A58FD95B Track not present in AccurateRip database Copy OK

Track 5

Filename C:\Users\Aaron\Desktop\Hobbit, The- The Battle of the Five Armies (WaterTower Standard Edition, 2014)\Disc 2\05. To the Death.wav

Pre-gap length 0:00:06.49

Peak level 97.7 % Extraction speed 3.3 X Track quality 100.0 % Copy CRC A2C9E4E2 Track not present in AccurateRip database Copy OK

Track 6

Filename C:\Users\Aaron\Desktop\Hobbit, The- The Battle of the Five Armies (WaterTower Standard Edition, 2014)\Disc 2\06. Courage and Wisdom.wav

Pre-gap length 0:00:03.47

Peak level 78.2 % Extraction speed 3.4 X Track quality 99.9 % Copy CRC D3863016 Track not present in AccurateRip database Copy OK

Track 7

Filename C:\Users\Aaron\Desktop\Hobbit, The- The Battle of the Five Armies (WaterTower Standard Edition, 2014)\Disc 2\07. The Return Journey.wav

Pre-gap length 0:00:00.73

Peak level 97.4 % Extraction speed 3.7 X Track quality 100.0 % Copy CRC A533945B Track not present in AccurateRip database Copy OK

Track 8

Filename C:\Users\Aaron\Desktop\Hobbit, The- The Battle of the Five Armies (WaterTower Standard Edition, 2014)\Disc 2\08. There and Back Again.wav

Peak level 71.7 % Extraction speed 3.8 X Track quality 100.0 % Copy CRC 35D3081B Track not present in AccurateRip database Copy OK

Track 9

Filename C:\Users\Aaron\Desktop\Hobbit, The- The Battle of the Five Armies (WaterTower Standard Edition, 2014)\Disc 2\09. The Last Goodbye.wav

Pre-gap length 0:00:01.55

Peak level 97.2 % Extraction speed 4.0 X Track quality 100.0 % Copy CRC DD8AE276 Track not present in AccurateRip database Copy OK

Track 10

Filename C:\Users\Aaron\Desktop\Hobbit, The- The Battle of the Five Armies (WaterTower Standard Edition, 2014)\Disc 2\10. Ironfoot.wav

Peak level 97.7 % Extraction speed 4.2 X Track quality 100.0 % Copy CRC 22250BA8 Track not present in AccurateRip database Copy OK

None of the tracks are present in the AccurateRip database

No errors occurred

End of status report
REM GENRE SoundtrackREM DATE 2014REM DISCID 920B7A0AREM COMMENT "ExactAudioCopy v1.0b3"PERFORMER "Howard Shore"TITLE "The Hobbit - The Batte of the Five Armies CD2"FILE "01. The Darkest Hour.wav" WAVE TRACK 01 AUDIO TITLE "The Darkest Hour" PERFORMER "Howard Shore" INDEX 01 00:00:00 TRACK 02 AUDIO TITLE "Sons of Durin" PERFORMER "Howard Shore" INDEX 00 04:57:45FILE "02. Sons of Durin.wav" WAVE INDEX 01 00:00:00 TRACK 03 AUDIO TITLE "The Fallen" PERFORMER "Howard Shore" INDEX 00 04:24:12FILE "03. The Fallen.wav" WAVE INDEX 01 00:00:00 TRACK 04 AUDIO TITLE "Ravenhill" PERFORMER "Howard Shore" INDEX 00 04:55:20FILE "04. Ravenhill.wav" WAVE INDEX 01 00:00:00 TRACK 05 AUDIO TITLE "To the Death" PERFORMER "Howard Shore" INDEX 00 05:41:25FILE "05. To the Death.wav" WAVE INDEX 01 00:00:00 TRACK 06 AUDIO TITLE "Courage and Wisdom" PERFORMER "Howard Shore" INDEX 00 05:10:14FILE "06. Courage and Wisdom.wav" WAVE INDEX 01 00:00:00 TRACK 07 AUDIO TITLE "The Return Journey" PERFORMER "Howard Shore" INDEX 00 05:09:09FILE "07. The Return Journey.wav" WAVE INDEX 01 00:00:00FILE "08. There and Back Again.wav" WAVE TRACK 08 AUDIO TITLE "There and Back Again" PERFORMER "Howard Shore" INDEX 01 00:00:00 TRACK 09 AUDIO TITLE "The Last Goodbye" PERFORMER "Howard Shore" INDEX 00 04:18:33FILE "09. The Last Goodbye.wav" WAVE INDEX 01 00:00:00FILE "10. Ironfoot.wav" WAVE TRACK 10 AUDIO TITLE "Ironfoot" PERFORMER "Howard Shore" INDEX 01 00:00:00
[/spoiler]



Трекер:  [ 13-Янв-2015 10:30 ]

  

Скачать .torrent

Размер .torrent файла 41 KB


Размер: 3.42 GB
Хэш (hash) релиза: 1d4301b60933ae8293c49f11a5e1dece7c571c2d

Еще никто не оставлял запись к записи скачать торрент Хоббит: Нежданное Путешествие, Пустошь Смауга, Битва Пяти Воинств The Hobbit: An Unexpected Journey, The Desolation of Smaug, The Battle of the Five Armies . Будь первым!

!Обратная связь