Скачать через торрент Святая троица: "Мечи, Магия, Школа" Seiken Tsukai no World Break бесплатно Аниме Все серии на русском torrent

Если у вас наблюдаются проблемы со скриншотами, переходом по ссылками, скачиванием торрентов - проблемы в блокировщике рекламы AdBlock. #хорошегоДня!


Статистика раздачи
Размер:  460 MB   |    Зарегистрирован:  2 года 8 месяцев   |    .torrent скачан:  24 раза   |   
Раздают:  1  
   
Загрузка...
 
Автор Сообщение

Galfimbul

avatar Galfimbul


Святая троица: "Мечи, Магия, Школа" / Seiken Tsukai no World Break

Страна: Япония
Год выпуска: 2015 г.
Жанр: приключения
Тип: TV
Продолжительность: 12 эп. по 25 мин.

Режиссер: Инагаки Такаюки
Студия: Studio Barcelona

Описание: Существует специальная школа, по обучению особых учеников, называемых "спасителями". Это люди, которые могут использовать магию, а также помнить все свои прошлые жизни. Спасители разделяются на два вида: Широгане и Курома. Первые применяют так называемую силу "Прана" и сражаются с помощью оружия и приёмов Вторые управляют силой «Мана», создающую магию, позволяющей преодолевать законы физики. В эту школу переводится новый ученик Мороха Хаимура. Как выясняется далее, парень единственный, кто обладает воспоминаниями о прошлых жизнях как Щирогане, так и Куромы.

Качество: HDTVRip
Тип релиза: Без хардсаба
Формат видео: MP4
Наличие линковки: Нет
Релиз/Автор рипа: Leopard-Raws
Видео: кодек: H264, размер кадра: 1280x720, битрейт: 2405 kbps 23.976 fps 8 bit
Аудио: аудиокодек: AAC, битрейт аудио: 192 kbps 48000 Hz stereo Язык Японский
Субтитры: ass, внешние, Переводчик: Esito [YakuSub Studio]

Не забываем "благодарить" и писать комментарии. Это стимулирует дальнейшие раздачи.
General
Complete name                    : E:\ongoing\Seiken Tsukai no World Break\[Leopard-Raws] Seiken Tsukai no World Break - 01 RAW (TX 1280x720 x264 AAC).mp4
Format                           : MPEG-4
Format profile                   : Base Media
Codec ID                         : isom
File size                        : 460 MiB
Duration                         : 24mn 45s
Overall bit rate                 : 2 601 Kbps
Encoded date                     : UTC 2015-01-12 03:21:44
Tagged date                      : UTC 2015-01-12 03:21:44

Video
ID                               : 1
Format                           : AVC
Format/Info                      : Advanced Video Codec
Format profile                   : High@L4.1
Format settings, CABAC           : Yes
Format settings, ReFrames        : 4 frames
Codec ID                         : avc1
Codec ID/Info                    : Advanced Video Coding
Duration                         : 24mn 44s
Bit rate mode                    : Variable
Bit rate                         : 2 405 Kbps
Maximum bit rate                 : 14.0 Mbps
Width                            : 1 280 pixels
Height                           : 720 pixels
Display aspect ratio             : 16:9
Frame rate mode                  : Constant
Frame rate                       : 23.976 fps
Color space                      : YUV
Chroma subsampling               : 4:2:0
Bit depth                        : 8 bits
Scan type                        : Progressive
Bits/(Pixel*Frame)               : 0.109
Stream size                      : 426 MiB (92%)
Title                            : 264:fps=23.976@GPAC0.5.1-DEV-rev4929
Writing library                  : x264 core 129 r2245+729M 1a52e03
Encoding settings                : cabac=1 / ref=4 / deblock=1:1:-1 / analyse=0x3:0x113 / me=umh / subme=9 / psy=1 / fade_compensate=0.00 / psy_rd=1.00:0.00 / mixed_ref=1 / me_range=24 / chroma_me=1 / trellis=2 / 8x8dct=1 / cqm=0 / deadzone=21,11 / fast_pskip=1 / chroma_qp_offset=-2 / threads=8 / lookahead_threads=1 / sliced_threads=0 / nr=0 / decimate=1 / interlaced=0 / bluray_compat=0 / constrained_intra=0 / fgo=0 / bframes=9 / b_pyramid=2 / b_adapt=2 / b_bias=0 / direct=1 / weightb=1 / open_gop=0 / weightp=2 / keyint=240 / keyint_min=24 / scenecut=40 / intra_refresh=0 / rc=crf / mbtree=0 / crf=18.5 / qcomp=0.72 / qpmin=0 / qpmax=69 / qpstep=4 / ip_ratio=1.40 / pb_ratio=1.30 / aq=1:0.85
Encoded date                     : UTC 2015-01-12 03:21:44
Tagged date                      : UTC 2015-01-12 03:21:47
Color primaries                  : BT.709-5, BT.1361, IEC 61966-2-4, SMPTE RP177
Transfer characteristics         : BT.709-5, BT.1361
Matrix coefficients              : BT.709-5, BT.1361, IEC 61966-2-4 709, SMPTE RP177

Audio
ID                               : 2
Format                           : AAC
Format/Info                      : Advanced Audio Codec
Format profile                   : LC
Codec ID                         : 40
Duration                         : 24mn 45s
Bit rate mode                    : Variable
Bit rate                         : 192 Kbps
Maximum bit rate                 : 227 Kbps
Channel(s)                       : 2 channels
Channel positions                : Front: L R
Sampling rate                    : 48.0 KHz
Compression mode                 : Lossy
Stream size                      : 33.9 MiB (7%)
Language                         : Japanese
Encoded date                     : UTC 2015-01-11 17:36:32
Tagged date                      : UTC 2015-01-12 03:21:47


Трекер:  [ 12-Янв-2015 20:30 ]

  

Скачать .torrent

Размер .torrent файла 18 KB


Размер: 460 MB
Хэш (hash) релиза: 72ded409ad2a4ff5022103ffe98b7e5f77623f66
Подписка на обновления:

Еще никто не оставлял запись к записи скачать торрент Святая троица: "Мечи, Магия, Школа" Seiken Tsukai no World Break . Будь первым!

!Обратная связь