3 torrent

, , - AdBlock. #!


579 MB   |    :  2 8    |    .torrent :  26    |   
1  
   
...
 

Galfimbul

avatar Galfimbul


3 / Tantei Kageki Milky Holmes ThirD

:
: 2015 .
:
: TV
: TV (?? .), ~25 .
:
: J.C.Staff, Nomad

:

, . - , , -, . , , , , .

: HDTVRip
:
: mp4
/ : DJATOM
: h264, 1280x720, ~3 175 kbps, 17.982 - 29.970 vfps, 10 bit
: AAC, ~192 Kbps, 48 KHz, 2ch :
: , .ass, : ; : - ()
Zool
1.
MediaInfo:
General
Complete name : E:\Torrents\Milky Holmes TD\Tantei Kageki Milky Holmes TD - 01.mp4
Format : MPEG-4
Format profile : Base Media
Codec ID : isom
File size : 579 MiB
Duration : 24mn 0s
Overall bit rate mode : Variable
Overall bit rate : 3 370 Kbps
Encoded date : UTC 2015-01-05 18:42:31
Tagged date : UTC 2015-01-05 18:42:31

Video
ID : 1
Format : AVC
Format/Info : Advanced Video Codec
Format profile : High 10@L4.1
Format settings, CABAC : Yes
Format settings, ReFrames : 4 frames
Codec ID : avc1
Codec ID/Info : Advanced Video Coding
Duration : 23mn 59s
Bit rate : 3 175 Kbps
Maximum bit rate : 30.3 Mbps
Width : 1 280 pixels
Height : 720 pixels
Display aspect ratio : 16:9
Frame rate mode : Variable
Frame rate : 24.471 fps
Minimum frame rate : 17.982 fps
Maximum frame rate : 29.970 fps
Color space : YUV
Chroma subsampling : 4:2:0
Bit depth : 10 bits
Scan type : Progressive
Bits/(Pixel*Frame) : 0.141
Stream size : 545 MiB (94%)
Writing library : x264 core 142 (DJATOM's build)
Encoding settings : cabac=1 / ref=4 / deblock=1:1:-1 / analyse=0x3:0x113 / me=umh / subme=9 / psy=1 / psy_rd=1.00:0.00 / mixed_ref=1 / me_range=24 / chroma_me=1 / trellis=2 / 8x8dct=1 / cqm=0 / deadzone=21,11 / fast_pskip=1 / chroma_qp_offset=-2 / threads=6 / lookahead_threads=1 / sliced_threads=0 / nr=0 / decimate=1 / interlaced=0 / bluray_compat=0 / constrained_intra=0 / bframes=9 / b_pyramid=2 / b_adapt=2 / b_bias=0 / direct=1 / weightb=1 / open_gop=0 / weightp=2 / keyint=240 / keyint_min=24 / scenecut=40 / intra_refresh=0 / rc=crf / mbtree=0 / crf=18.5000 / qcomp=0.72 / qpmin=0 / qpmax=81 / qpstep=4 / ip_ratio=1.40 / pb_ratio=1.30 / aq=1:0.85
Encoded date : UTC 2015-01-05 18:42:02
Tagged date : UTC 2015-01-05 18:42:33
Color primaries : BT.709
Transfer characteristics : BT.709
Matrix coefficients : BT.709

Audio
ID : 2
Format : AAC
Format/Info : Advanced Audio Codec
Format profile : LC
Codec ID : 40
Duration : 24mn 0s
Bit rate mode : Variable
Bit rate : 192 Kbps
Maximum bit rate : 230 Kbps
Channel(s) : 2 channels
Channel positions : Front: L R
Sampling rate : 48.0 KHz
Compression mode : Lossy
Stream size : 32.9 MiB (6%)
Encoded date : UTC 2015-01-05 13:40:11
Tagged date : UTC 2015-01-05 18:42:33


 ·  , , FAQ-
:  [ 11--2015 21:30 ]

  

.torrent

.torrent 12 KB


: 579 MB
(hash) : b30c7e4bc751a1987b3aef6b21081eefa360bbde
:
··
...

3 . !

!