Скачать через торрент музыку Геракл Hercules бесплатно без регистрации torrent

Если у вас наблюдаются проблемы со скриншотами, переходом по ссылками, скачиванием торрентов - проблемы в блокировщике рекламы AdBlock. #хорошегоДня!


Статистика раздачи
Размер:  418 MB   |    Зарегистрирован:  2 года 8 месяцев   |    .torrent скачан:  42 раза   |   
Раздают:  1  
   
Загрузка...
 
Автор Сообщение

Galfimbul

avatar Galfimbul


Геракл / Hercules
Жанр: Score
Композитор: Fernando Velazquez
Год выпуска диска: 2014
Производитель диска: Sony DADC, Austria
Издатель (лейбл): Sony Classical
Номер по каталогу: 88843098892
Аудиокодек: FLAC (*.flac)
Тип рипа: tracks+.cue
Битрейт аудио: lossless
Продолжительность: 01:05:36
Источник: собственный рип
Наличие сканов в содержимом раздачи: да, 600dpi
Ссылки: Кинопоиск | IMDB | Wikipedia | SoundtrackCollector
MP3: [url=...4791324](Score) Геракл / Hercules (by Fernando Velazquez) - 2014, MP3, 320 kbps[/url]
01. Son Of Zeus [0:03:23.18]
02. Pirate's Camp [0:01:47.06]
03. Hercules [0:00:24.02]
04. Arrival At Lord Cotys' City [0:01:31.61]
05. Flashback [0:00:53.21]
06. Athens [0:00:59.46]
07. Lord Cotys' Palace [0:01:44.42]
08. I Will Believe In You [0:01:13.64]
09. The Lion's Tooth [0:00:52.16]
10. Bessi's Valley [0:06:29.65]
11. Bessi-Battle [0:06:12.60]
12. The Campfire [0:02:03.48]
13. Training [0:01:43.50]
14. Centaurs [0:04:27.24]
15. The Battle [0:04:43.32]
16. Rhesus Caught [0:00:56.16]
17. Dungeon & I Am Hercules [0:06:30.31]
18. Kill Eurysteus [0:02:11.65]
19. Cotys Brings Out Arias [0:01:45.00]
20. Final Fight & Tidius' Death [0:03:29.17]
21. The Statue Falls [0:02:04.67]
22. Comrades Stand Together [0:02:07.09]
23. Alternative Ending [0:03:07.59]
24. End Titles [0:03:26.09]
25. Choir Theme [0:01:26.57]
Exact Audio Copy V1.0 beta 3 from 29. August 2011

EAC extraction logfile from 7. December 2014, 20:17

Fernando Velázquez / Hercules

Used drive : PLEXTOR CD-R PX-230A Adapter: 1 ID: 0

Read mode : SecureUtilize accurate stream : YesDefeat audio cache : YesMake use of C2 pointers : No

Read offset correction : 738Overread into Lead-In and Lead-Out : NoFill up missing offset samples with silence : YesDelete leading and trailing silent blocks : NoNull samples used in CRC calculations : YesUsed interface : Native Win32 interface for Win NT & 2000Gap handling : Appended to previous track

Used output format : User Defined EncoderSelected bitrate : 896 kBit/sQuality : HighAdd ID3 tag : NoCommand line compressor : C:\Program Files\Exact Audio Copy\FLAC\FLAC.EXEAdditional command line options : -6 -V -T "ARTIST=%artist%" -T "TITLE=%title%" -T "ALBUM=%albumtitle%" -T "DATE=%year%"-T "TRACKNUMBER=%tracknr%" -T "GENRE=%genre%" -T "COMMENT=%comment%" -T "ALBUMARTIST=%albuminterpret%" -T "COMPOSER=%composer%"-T "DISCNUMBER=%cdnumber%" -T "TOTALDISCS=%totalcds%" -T "TOTALTRACKS=%numtracks%" %source% -o %dest%

TOC of the extracted CD

Track | Start | Length | Start sector | End sector --------------------------------------------------------- 1 | 0:00.00 | 3:23.18 | 0 | 15242 2 | 3:23.18 | 1:47.06 | 15243 | 23273 3 | 5:10.24 | 0:24.02 | 23274 | 25075 4 | 5:34.26 | 1:31.61 | 25076 | 31961 5 | 7:06.12 | 0:53.21 | 31962 | 35957 6 | 7:59.33 | 0:59.46 | 35958 | 40428 7 | 8:59.04 | 1:44.42 | 40429 | 48270 8 | 10:43.46 | 1:13.64 | 48271 | 53809 9 | 11:57.35 | 0:52.16 | 53810 | 57725 10 | 12:49.51 | 6:29.65 | 57726 | 86965 11 | 19:19.41 | 6:12.60 | 86966 | 114925 12 | 25:32.26 | 2:03.48 | 114926 | 124198 13 | 27:35.74 | 1:43.50 | 124199 | 131973 14 | 29:19.49 | 4:27.24 | 131974 | 152022 15 | 33:46.73 | 4:43.32 | 152023 | 173279 16 | 38:30.30 | 0:56.16 | 173280 | 177495 17 | 39:26.46 | 6:30.31 | 177496 | 206776 18 | 45:57.02 | 2:11.65 | 206777 | 216666 19 | 48:08.67 | 1:45.00 | 216667 | 224541 20 | 49:53.67 | 3:29.17 | 224542 | 240233 21 | 53:23.09 | 2:04.67 | 240234 | 249600 22 | 55:28.01 | 2:07.09 | 249601 | 259134 23 | 57:35.10 | 3:07.59 | 259135 | 273218 24 | 60:42.69 | 3:26.09 | 273219 | 288677 25 | 64:09.03 | 1:26.57 | 288678 | 295184

Track 1

Filename C:\Music\01 - Fernando Velázquez - Son Of Zeus.wav

Pre-gap length 0:00:02.00

Peak level 97.5 % Extraction speed 5.2 X Track quality 100.0 % Test CRC FBA14157 Copy CRC FBA14157 Track not present in AccurateRip database Copy OK

Track 2

Filename C:\Music\02 - Fernando Velázquez - Pirate's Camp.wav

Pre-gap length 0:00:00.20

Peak level 98.4 % Extraction speed 4.9 X Track quality 100.0 % Test CRC F2AA1470 Copy CRC F2AA1470 Track not present in AccurateRip database Copy OK

Track 3

Filename C:\Music\03 - Fernando Velázquez - Hercules.wav

Peak level 96.8 % Extraction speed 2.6 X Track quality 100.0 % Test CRC B8018A41 Copy CRC B8018A41 Track not present in AccurateRip database Copy OK

Track 4

Filename C:\Music\04 - Fernando Velázquez - Arrival At Lord Cotys' City.wav

Pre-gap length 0:00:00.72

Peak level 94.2 % Extraction speed 4.6 X Track quality 100.0 % Test CRC EA2CD1F8 Copy CRC EA2CD1F8 Track not present in AccurateRip database Copy OK

Track 5

Filename C:\Music\05 - Fernando Velázquez - Flashback.wav

Pre-gap length 0:00:00.04

Peak level 64.8 % Extraction speed 3.8 X Track quality 100.0 % Test CRC 93C422AC Copy CRC 93C422AC Track not present in AccurateRip database Copy OK

Track 6

Filename C:\Music\06 - Fernando Velázquez - Athens.wav

Pre-gap length 0:00:00.12

Peak level 78.3 % Extraction speed 4.0 X Track quality 100.0 % Test CRC BAD751D6 Copy CRC BAD751D6 Track not present in AccurateRip database Copy OK

Track 7

Filename C:\Music\07 - Fernando Velázquez - Lord Cotys' Palace.wav

Pre-gap length 0:00:00.04

Peak level 94.2 % Extraction speed 3.2 X Track quality 99.8 % Test CRC BBC584B3 Copy CRC BBC584B3 Track not present in AccurateRip database Copy OK

Track 8

Filename C:\Music\08 - Fernando Velázquez - I Will Believe In You.wav

Peak level 78.3 % Extraction speed 4.5 X Track quality 100.0 % Test CRC 37A39574 Copy CRC 37A39574 Track not present in AccurateRip database Copy OK

Track 9

Filename C:\Music\09 - Fernando Velázquez - The Lion's Tooth.wav

Peak level 36.0 % Extraction speed 3.8 X Track quality 100.0 % Test CRC CDEAD8C4 Copy CRC CDEAD8C4 Track not present in AccurateRip database Copy OK

Track 10

Filename C:\Music\10 - Fernando Velázquez - Bessi's Valley.wav

Peak level 96.6 % Extraction speed 5.5 X Track quality 100.0 % Test CRC 6020CA64 Copy CRC 6020CA64 Track not present in AccurateRip database Copy OK

Track 11

Filename C:\Music\11 - Fernando Velázquez - Bessi-Battle.wav

Pre-gap length 0:00:00.09

Peak level 98.6 % Extraction speed 4.8 X Track quality 99.9 % Test CRC 75C99D29 Copy CRC 75C99D29 Track not present in AccurateRip database Copy OK

Track 12

Filename C:\Music\12 - Fernando Velázquez - The Campfire.wav

Pre-gap length 0:00:00.09

Peak level 44.9 % Extraction speed 3.3 X Track quality 100.0 % Test CRC 0819A7D3 Copy CRC 0819A7D3 Track not present in AccurateRip database Copy OK

Track 13

Filename C:\Music\13 - Fernando Velázquez - Training.wav

Pre-gap length 0:00:00.61

Peak level 96.0 % Extraction speed 4.7 X Track quality 100.0 % Test CRC 41BEE1FC Copy CRC 41BEE1FC Track not present in AccurateRip database Copy OK

Track 14

Filename C:\Music\14 - Fernando Velázquez - Centaurs.wav

Pre-gap length 0:00:00.16

Peak level 95.1 % Extraction speed 4.6 X Track quality 100.0 % Test CRC 8293C323 Copy CRC 8293C323 Track not present in AccurateRip database Copy OK

Track 15

Filename C:\Music\15 - Fernando Velázquez - The Battle.wav

Peak level 95.4 % Extraction speed 5.4 X Track quality 100.0 % Test CRC FF92F2E5 Copy CRC FF92F2E5 Track not present in AccurateRip database Copy OK

Track 16

Filename C:\Music\16 - Fernando Velázquez - Rhesus Caught.wav

Pre-gap length 0:00:01.23

Peak level 94.1 % Extraction speed 3.6 X Track quality 100.0 % Test CRC FCE3410F Copy CRC FCE3410F Track not present in AccurateRip database Copy OK

Track 17

Filename C:\Music\17 - Fernando Velázquez - Dungeon & I Am Hercules.wav

Pre-gap length 0:00:00.58

Peak level 98.1 % Extraction speed 4.0 X Track quality 99.9 % Test CRC C1650C36 Copy CRC C1650C36 Track not present in AccurateRip database Copy OK

Track 18

Filename C:\Music\18 - Fernando Velázquez - Kill Eurysteus.wav

Peak level 96.6 % Extraction speed 4.2 X Track quality 100.0 % Test CRC 51BAB1AC Copy CRC 51BAB1AC Track not present in AccurateRip database Copy OK

Track 19

Filename C:\Music\19 - Fernando Velázquez - Cotys Brings Out Arias.wav

Peak level 96.8 % Extraction speed 3.9 X Track quality 100.0 % Test CRC 8EF684D0 Copy CRC 8EF684D0 Track not present in AccurateRip database Copy OK

Track 20

Filename C:\Music\20 - Fernando Velázquez - Final Fight & Tidius' Death.wav

Peak level 95.6 % Extraction speed 4.6 X Track quality 100.0 % Test CRC 6E175765 Copy CRC 6E175765 Track not present in AccurateRip database Copy OK

Track 21

Filename C:\Music\21 - Fernando Velázquez - The Statue Falls.wav

Pre-gap length 0:00:00.29

Peak level 97.7 % Extraction speed 4.0 X Track quality 100.0 % Test CRC C1DE7CE2 Copy CRC C1DE7CE2 Track not present in AccurateRip database Copy OK

Track 22

Filename C:\Music\22 - Fernando Velázquez - Comrades Stand Together.wav

Pre-gap length 0:00:00.47

Peak level 96.1 % Extraction speed 3.3 X Track quality 99.9 % Test CRC 62704C1B Copy CRC 62704C1B Track not present in AccurateRip database Copy OK

Track 23

Filename C:\Music\23 - Fernando Velázquez - Alternative Ending.wav

Pre-gap length 0:00:02.44

Peak level 98.4 % Extraction speed 3.4 X Track quality 100.0 % Test CRC DC0CCC0F Copy CRC DC0CCC0F Track not present in AccurateRip database Copy OK

Track 24

Filename C:\Music\24 - Fernando Velázquez - End Titles.wav

Pre-gap length 0:00:00.51

Peak level 98.9 % Extraction speed 4.6 X Track quality 100.0 % Test CRC 192E325E Copy CRC 192E325E Track not present in AccurateRip database Copy OK

Track 25

Filename C:\Music\25 - Fernando Velázquez - Choir Theme.wav

Pre-gap length 0:00:01.57

Peak level 84.5 % Extraction speed 3.2 X Track quality 100.0 % Test CRC BD729A1D Copy CRC BD729A1D Track not present in AccurateRip database Copy OK

None of the tracks are present in the AccurateRip database

No errors occurred

End of status report

==== Log checksum C45D12B40C8D15AF79C945D793E9C3C81F59DE0CD275F960DB5167F2A8BFB82C ====
REM GENRE SoundtrackREM DATE 2014REM DISCID 5A0F5F19REM COMMENT "ExactAudioCopy v1.0b3"PERFORMER "Fernando Velazquez"TITLE "Hercules"FILE "01 - Fernando Velazquez - Son Of Zeus.wav" WAVE TRACK 01 AUDIO TITLE "Son Of Zeus" PERFORMER "Fernando Velazquez" INDEX 01 00:00:00 TRACK 02 AUDIO TITLE "Pirate's Camp" PERFORMER "Fernando Velazquez" INDEX 00 03:22:73FILE "02 - Fernando Velazquez - Pirate's Camp.wav" WAVE INDEX 01 00:00:00FILE "03 - Fernando Velazquez - Hercules.wav" WAVE TRACK 03 AUDIO TITLE "Hercules" PERFORMER "Fernando Velazquez" INDEX 01 00:00:00 TRACK 04 AUDIO TITLE "Arrival At Lord Cotys' City" PERFORMER "Fernando Velazquez" INDEX 00 00:23:05FILE "04 - Fernando Velazquez - Arrival At Lord Cotys' City.wav" WAVE INDEX 01 00:00:00 TRACK 05 AUDIO TITLE "Flashback" PERFORMER "Fernando Velazquez" INDEX 00 01:31:57FILE "05 - Fernando Velazquez - Flashback.wav" WAVE INDEX 01 00:00:00 TRACK 06 AUDIO TITLE "Athens" PERFORMER "Fernando Velazquez" INDEX 00 00:53:09FILE "06 - Fernando Velazquez - Athens.wav" WAVE INDEX 01 00:00:00 TRACK 07 AUDIO TITLE "Lord Cotys' Palace" PERFORMER "Fernando Velazquez" INDEX 00 00:59:42FILE "07 - Fernando Velazquez - Lord Cotys' Palace.wav" WAVE INDEX 01 00:00:00FILE "08 - Fernando Velazquez - I Will Believe In You.wav" WAVE TRACK 08 AUDIO TITLE "I Will Believe In You" PERFORMER "Fernando Velazquez" INDEX 01 00:00:00FILE "09 - Fernando Velazquez - The Lion's Tooth.wav" WAVE TRACK 09 AUDIO TITLE "The Lion's Tooth" PERFORMER "Fernando Velazquez" INDEX 01 00:00:00FILE "10 - Fernando Velazquez - Bessi's Valley.wav" WAVE TRACK 10 AUDIO TITLE "Bessi's Valley" PERFORMER "Fernando Velazquez" INDEX 01 00:00:00 TRACK 11 AUDIO TITLE "Bessi-Battle" PERFORMER "Fernando Velazquez" INDEX 00 06:29:56FILE "11 - Fernando Velazquez - Bessi-Battle.wav" WAVE INDEX 01 00:00:00 TRACK 12 AUDIO TITLE "The Campfire" PERFORMER "Fernando Velazquez" INDEX 00 06:12:51FILE "12 - Fernando Velazquez - The Campfire.wav" WAVE INDEX 01 00:00:00 TRACK 13 AUDIO TITLE "Training" PERFORMER "Fernando Velazquez" INDEX 00 02:02:62FILE "13 - Fernando Velazquez - Training.wav" WAVE INDEX 01 00:00:00 TRACK 14 AUDIO TITLE "Centaurs" PERFORMER "Fernando Velazquez" INDEX 00 01:43:34FILE "14 - Fernando Velazquez - Centaurs.wav" WAVE INDEX 01 00:00:00FILE "15 - Fernando Velazquez - The Battle.wav" WAVE TRACK 15 AUDIO TITLE "The Battle" PERFORMER "Fernando Velazquez" INDEX 01 00:00:00 TRACK 16 AUDIO TITLE "Rhesus Caught" PERFORMER "Fernando Velazquez" INDEX 00 04:42:09FILE "16 - Fernando Velazquez - Rhesus Caught.wav" WAVE INDEX 01 00:00:00 TRACK 17 AUDIO TITLE "Dungeon & I Am Hercules" PERFORMER "Fernando Velazquez" INDEX 00 00:55:33FILE "17 - Fernando Velazquez - Dungeon & I Am Hercules.wav" WAVE INDEX 01 00:00:00FILE "18 - Fernando Velazquez - Kill Eurysteus.wav" WAVE TRACK 18 AUDIO TITLE "Kill Eurysteus" PERFORMER "Fernando Velazquez" INDEX 01 00:00:00FILE "19 - Fernando Velazquez - Cotys Brings Out Arias.wav" WAVE TRACK 19 AUDIO TITLE "Cotys Brings Out Arias" PERFORMER "Fernando Velazquez" INDEX 01 00:00:00FILE "20 - Fernando Velazquez - Final Fight & Tidius' Death.wav" WAVE TRACK 20 AUDIO TITLE "Final Fight & Tidius' Death" PERFORMER "Fernando Velazquez" INDEX 01 00:00:00 TRACK 21 AUDIO TITLE "The Statue Falls" PERFORMER "Fernando Velazquez" INDEX 00 03:28:63FILE "21 - Fernando Velazquez - The Statue Falls.wav" WAVE INDEX 01 00:00:00 TRACK 22 AUDIO TITLE "Comrades Stand Together" PERFORMER "Fernando Velazquez" INDEX 00 02:04:20FILE "22 - Fernando Velazquez - Comrades Stand Together.wav" WAVE INDEX 01 00:00:00 TRACK 23 AUDIO TITLE "Alternative Ending" PERFORMER "Fernando Velazquez" INDEX 00 02:04:40FILE "23 - Fernando Velazquez - Alternative Ending.wav" WAVE INDEX 01 00:00:00 TRACK 24 AUDIO TITLE "End Titles" PERFORMER "Fernando Velazquez" INDEX 00 03:07:08FILE "24 - Fernando Velazquez - End Titles.wav" WAVE INDEX 01 00:00:00 TRACK 25 AUDIO TITLE "Choir Theme" PERFORMER "Fernando Velazquez" INDEX 00 03:24:27FILE "25 - Fernando Velazquez - Choir Theme.wav" WAVE INDEX 01 00:00:00


Трекер:  [ 11-Янв-2015 13:00 ]

  

Скачать .torrent

Размер .torrent файла 11 KB


Размер: 418 MB
Хэш (hash) релиза: 215308b57011822cd28881a6264ffb29bb6dafdc

Еще никто не оставлял запись к записи скачать торрент Геракл Hercules . Будь первым!

!Обратная связь