Скачать через торрент музыку бесплатно без регистрации torrent

Если у вас наблюдаются проблемы со скриншотами, переходом по ссылками, скачиванием торрентов - проблемы в блокировщике рекламы AdBlock. #хорошегоДня!


Статистика раздачи
Размер:  206 MB   |    Зарегистрирован:  2 года 9 месяцев   |    .torrent скачан:  43 раза   |   
Раздают:  1  
   
Загрузка...
 
Автор Сообщение

Galfimbul

avatar Galfimbul


Christophe Beck // Elektra -- Электра



Жанр: Score
Носитель: CD
Лейбл: Varese Sarabande
Каталог: 302 066 633 2
Год выпуска диска: 2005
Производитель диска: USA
Аудио кодек: FLAC (*.flac)
Тип рипа: image+.cue
Битрейт аудио: lossless
Продолжительность: 00:45:21
Источник: SoulSeek / TJ-Themes
Наличие сканов в содержимом раздачи: да
Трэклист:
01. Main Title (1:31)
02. DeMarco's End (2:07)
03. Ferry Crossing (3:20)
04. Insomnia (2:12)
05. Ninjas (4:05)
06. The Hand (1:24)
07. Gnarly Gongs (1:15)
08. Stick (2:05)
09. Just Sit Quietly (1:05)
10. The Kiss (1:40)
11. Escape From McCabe's (2:20)
12. Tattoo (0:50)
13. The Forest (1:48)
14. Wolf Run (1:58)
15. Typhold (2:17)
16. Just A Girl (1:50)
17. Homecoming (1:55)
18. Candle Trick (1:42)
19. Kirigi (2:29)
20. Hedge Maze Brawl (2:37)
21. Elektra's Second Life (4:56)
EAC extraction logfile from 26. August 2006, 10:15 for CDChristophe Beck / Elektra

Used drive : PLEXTOR DVDR PX-708A Adapter: 3 ID: 0Read mode : Secure with NO C2, accurate stream, disable cacheRead offset correction : 30Overread into Lead-In and Lead-Out : Yes

Used output format : Internal WAV Routines 44.100 Hz; 16 Bit; Stereo

Other options : Fill up missing offset samples with silence : Yes Delete leading and trailing silent blocks : No Installed external ASPI interface

Range status and errorsSelected range Filename C:\Lossless Music\Elektra\CD\Christophe Beck - Elektra.wav

Peak level 99.8 % Range quality 100.0 % CRC 423DA58D Copy OK

No errors occured

End of status report
REM GENRE SoundtrackREM DATE 2005REM DISCID 170AA115REM COMMENT "ExactAudioCopy v0.95b4"PERFORMER "Christophe Beck"TITLE "Elektra"FILE "christophe beck - elektra.flac" WAVE TRACK 01 AUDIO TITLE "Main Title" PERFORMER "Christophe Beck" ISRC US3M50563301 INDEX 01 00:00:00 TRACK 02 AUDIO TITLE "DeMarco's End" PERFORMER "Christophe Beck" ISRC US3M50563302 INDEX 01 01:31:12 TRACK 03 AUDIO TITLE "Ferry Crossing" PERFORMER "Christophe Beck" ISRC US3M50563303 INDEX 01 03:38:24 TRACK 04 AUDIO TITLE "Insomnia" PERFORMER "Christophe Beck" ISRC US3M50563304 INDEX 01 06:57:59 TRACK 05 AUDIO TITLE "Ninjas" PERFORMER "Christophe Beck" ISRC US3M50563305 INDEX 01 09:09:12 TRACK 06 AUDIO TITLE "The Hand" PERFORMER "Christophe Beck" ISRC US3M50563306 INDEX 01 13:13:69 TRACK 07 AUDIO TITLE "Gnarly Gongs" PERFORMER "Christophe Beck" ISRC US3M50563307 INDEX 01 14:37:26 TRACK 08 AUDIO TITLE "Stick" PERFORMER "Christophe Beck" ISRC US3M50563308 INDEX 01 15:52:44 TRACK 09 AUDIO TITLE "Just Sit Quietly" PERFORMER "Christophe Beck" ISRC US3M50563309 INDEX 01 17:57:20 TRACK 10 AUDIO TITLE "The Kiss" PERFORMER "Christophe Beck" ISRC US3M50563310 INDEX 01 19:02:00 TRACK 11 AUDIO TITLE "Escape from McCabe's" PERFORMER "Christophe Beck" ISRC US3M50563311 INDEX 01 20:41:59 TRACK 12 AUDIO TITLE "Tattoo" PERFORMER "Christophe Beck" ISRC US3M50563312 INDEX 01 23:01:60 TRACK 13 AUDIO TITLE "The Forest" PERFORMER "Christophe Beck" ISRC US3M50563313 INDEX 01 23:51:22 TRACK 14 AUDIO TITLE "Wolf Run" PERFORMER "Christophe Beck" ISRC US3M50563314 INDEX 01 25:39:19 TRACK 15 AUDIO TITLE "Typhoid" PERFORMER "Christophe Beck" ISRC US3M50563315 INDEX 01 27:37:26 TRACK 16 AUDIO TITLE "Just A Girl" PERFORMER "Christophe Beck" ISRC US3M50563316 INDEX 01 29:54:41 TRACK 17 AUDIO TITLE "Homecoming" PERFORMER "Christophe Beck" ISRC US3M50563317 INDEX 01 31:44:18 TRACK 18 AUDIO TITLE "Candle Trick" PERFORMER "Christophe Beck" ISRC US3M50563318 INDEX 01 33:38:44 TRACK 19 AUDIO TITLE "Kirigi" PERFORMER "Christophe Beck" ISRC US3M50563319 INDEX 01 35:20:08 TRACK 20 AUDIO TITLE "Hedge Maze Brawl" PERFORMER "Christophe Beck" ISRC US3M50563320 INDEX 01 37:49:17 TRACK 21 AUDIO TITLE "Elektra's Second Life" PERFORMER "Christophe Beck" ISRC US3M50563321 INDEX 01 40:25:40
[CUETools log; Date: 10.01.2015 21:21:52; Version: 2.1.2a][CTDB TOCID: yhQhX5wZmChCehptFKcqAssXEqw-] found. [ CTDBID ] Status [89896e2d] (3/6) No match [e621f6b6] (3/6) Accurately ripped[AccurateRip ID: 0020c227-01f0ba5b-170aa115] found.Track [ CRC ] Status 01 [c01d2eb6] (00/10) No match but offset 02 [a87a32d2] (00/10) No match but offset 03 [4a5c427a] (00/10) No match but offset 04 [d1b69c63] (00/10) No match but offset 05 [707f6212] (00/10) No match but offset 06 [140bdd47] (00/10) No match but offset 07 [e2e84b18] (00/10) No match but offset 08 [e79c629a] (00/10) No match but offset 09 [9324627a] (00/10) No match but offset 10 [74366516] (00/10) No match but offset 11 [e567a901] (00/10) No match but offset 12 [89561966] (00/10) No match but offset 13 [de1b7ac0] (00/10) No match but offset 14 [7d209530] (00/10) No match but offset 15 [26c7ff64] (00/10) No match but offset 16 [d20429c9] (00/10) No match but offset 17 [a5ed4c2a] (00/10) No match but offset 18 [7ff5e2d0] (00/10) No match but offset 19 [0001bcbb] (00/10) No match but offset 20 [0c5ece2a] (00/10) No match but offset 21 [e2dfeddc] (00/10) No match but offsetAccurateRip v2: 01 [ed404114] (03/10) Accurately ripped 02 [1564b7c3] (03/10) Accurately ripped 03 [8e96f8f9] (03/10) Accurately ripped 04 [4e555e96] (03/10) Accurately ripped 05 [265a0dcd] (03/10) Accurately ripped 06 [7dd1ab49] (03/10) Accurately ripped 07 [cbd6a6d4] (03/10) Accurately ripped 08 [3ababce2] (03/10) Accurately ripped 09 [64a83228] (03/10) Accurately ripped 10 [9472040d] (03/10) Accurately ripped 11 [189f2728] (03/10) Accurately ripped 12 [1f8da44b] (03/10) Accurately ripped 13 [409f39eb] (03/10) Accurately ripped 14 [bef3801c] (03/10) Accurately ripped 15 [c3e5c401] (03/10) Accurately ripped 16 [b7a6f06c] (03/10) Accurately ripped 17 [ce2ab7a2] (03/10) Accurately ripped 18 [8a847132] (03/10) Accurately ripped 19 [06a3cc4d] (03/10) Accurately ripped 20 [bf16619c] (03/10) Accurately ripped 21 [d933ee2a] (03/10) Accurately ripped

Track Peak [ CRC32 ] [W/O NULL] [ LOG ] -- 99,8 [423DA58D] [558AA653] CRC32 01 96,5 [4CA12CF1] [8913285B] 02 99,8 [D58C5524] [BEE30A20] 03 99,0 [0D7AA67A] [1223AAC7] 04 99,8 [1CCDED6B] [7F72F41B] 05 99,8 [FF973BA8] [414B2485] 06 96,6 [1D621A54] [7214C29F] 07 96,6 [50A815A8] [4AF7630E] 08 97,3 [F512E4EA] [5C737C43] 09 36,0 [C4080588] [A6F264BE] 10 44,1 [329B46D8] [6045B2AF] 11 99,1 [40B88E5F] [3A61C2BB] 12 98,4 [3E362264] [67C92DEE] 13 93,6 [C1C8C956] [72BF7A8C] 14 97,4 [91215070] [A5E71B0B] 15 69,8 [3D6ED3DF] [3A4B5F35] 16 47,9 [DABB806C] [E71B5E11] 17 51,4 [54F2EA9F] [77E35749] 18 97,2 [5EBEA7DE] [946E1F99] 19 99,2 [5AE678B0] [95DCC0C6] 20 99,0 [18652EDC] [9C974137] 21 96,7 [85918AAD] [5C50A204]


Трекер:  [ 10-Янв-2015 21:00 ]

  

Скачать .torrent

Размер .torrent файла 17 KB


Размер: 206 MB
Хэш (hash) релиза: 6c54bae8e4c3cba7e9471af653c132701e2e4b22

Еще никто не оставлял запись к записи скачать торрент . Будь первым!

!Обратная связь