Скачать через торрент Великолепный парк Амаги Amagi Brilliant Park бесплатно Аниме Все серии на русском torrent

Если у вас наблюдаются проблемы со скриншотами, переходом по ссылками, скачиванием торрентов - проблемы в блокировщике рекламы AdBlock. #хорошегоДня!


Статистика раздачи
Размер:  15.86 GB   |    Зарегистрирован:  2 года 8 месяцев   |    .torrent скачан:  47 раз   |   
Раздают:  1  
   
Загрузка...
 
Автор Сообщение

Galfimbul

avatar Galfimbul



Страна: Япония
Год выпуска: 2014
Жанр: комедия, фэнтези
Продолжительность: ТВ (12 эп.), по 24 мин.
Режиссер: Такэмото Ясухиро
Студия:
Перевод:

русские субтитры от Sa4ko aka Kiyoso & Zenobian (полные)
редактор: Zenobian; переводчик, перевод песен, оформление, тайм-код: Sa4ko aka Kiyoso
русские субтитры от YakuSub Studio (полные)
редактор: Aero, переводчик: Nika_Elrik, оформление: Loony Key
Описание: Сэйя Каниэ в детстве был знаменитым актером, но потом пережил трагедию и спрятался в образе законченного нарцисса и эгоиста. Красавца-отличника ничто не волнует, хотя… можно и послушать, когда тихая одноклассница Исудзу Сэнто сует тебе в лоб неясно откуда взявшийся старинный мушкет. Так Сэйя узнал о парке развлечений Амаги, оказавшимся анклавом волшебной Кленовой страны, обитатели которой не могут жить без светлой маны. Увы, как поведала местная принцесса Латифа, людей в ее парк ходит и радуется все меньше, и послам волшебства грозит гибель, как цветкам в пустыне. Короче, без Каниэ они точно пропадут!

Что ж, гений шоу-бизнеса пробуждается лишь для того, чтобы совершить невозможное! Не беда, что парк совсем обветшал, денег нет, а феи с монстрами разучились работать и смирились с жалкой участью. Не страшно, что рядом крутятся ушлые ребята, готовые прибрать к рукам лакомый кусочек. Сэйя заключил с ними пари, что за три месяца парк примет 250 тысяч посетителей – в сотню раз больше, чем до того! И, надо сказать, что с идеями нового лидера и помощью Латифы с Сэнто машина Амаги хоть со скрипом, но закрутилась и начала набирать ход. Успеют ли герои в срок? Кто сомневается, тому не место в стройных рядах работников нашего парка!
© Hollow, World Art
Информационные ссылки: AniDB || World Art || MAL
Качество: BDRemux
Тип видео: без хардсаба, без линковки
Формат видео: M2TS
Видео: AVC, 8 bits, 1920x1080 (16:9), 23.976 fps, ~38.1 Mbps
Аудио JAP#1: PCM, 48000Hz, 2ch, ~2304 Kbps
Аудио JAP#2-3: PCM, 48000Hz, 2ch, ~2304 Kbps | Комментарии
Общее
Идентификатор: 1 (0x1)
Полное имя: C:\Раздачи\Amagi Brilliant Park [BDRemux] [1080p]\Amagi Brilliant Park 01.m2ts
Формат: BDAV
Формат/Информация: Blu-ray Video
Размер файла: 7,92 Гбайт
Продолжительность: 24 м.
Режим общего битрейта: Переменный
Общий поток: 46,9 Мбит/сек
Максимальный общий битрейт: 35,5 Мбит/сек

Видео
Идентификатор: 4113 (0x1011)
Идентификатор меню: 1 (0x1)
Формат: AVC
Формат/Информация: Advanced Video Codec
Профиль формата: High@L4.1
Параметр CABAC формата: Да
Параметр ReFrames формата: 4 кадра
Идентификатор кодека: 27
Продолжительность: 24 м.
Вид битрейта: Переменный
Битрейт: 38,1 Мбит/сек
Максимальный битрейт: 40,0 Мбит/сек
Ширина: 1920 пикселей
Высота: 1080 пикселей
Соотношение сторон: 16:9
Частота кадров: 23,976 кадра/сек
Цветовое пространство: YUV
Субдискретизация насыщенности: 4:2:0
Битовая глубина: 8 бит
Тип развёртки: Прогрессивная
Бит/(Пиксели*Кадры): 0.766
Размер потока: 6,44 Гбайт (81%)

Аудио #1
Идентификатор: 4352 (0x1100)
Идентификатор меню: 1 (0x1)
Формат: PCM
Параметр Endianness формата: Big
Параметр Sign формата: Signed
Режим смешивания: Blu-ray
Идентификатор кодека: 128
Продолжительность: 24 м.
Вид битрейта: Постоянный
Битрейт: 2304 Кбит/сек
Каналы: 2 канала
Расположение каналов: Front: L R
Частота: 48,0 КГц
Битовая глубина: 24 бит
Размер потока: 399 Мбайт (5%)

Аудио #2
Идентификатор: 4353 (0x1101)
Идентификатор меню: 1 (0x1)
Формат: PCM
Параметр Endianness формата: Big
Параметр Sign формата: Signed
Режим смешивания: Blu-ray
Идентификатор кодека: 128
Продолжительность: 24 м.
Вид битрейта: Постоянный
Битрейт: 2304 Кбит/сек
Каналы: 2 канала
Расположение каналов: Front: L R
Частота: 48,0 КГц
Битовая глубина: 24 бит
Размер потока: 399 Мбайт (5%)

Аудио #3
Идентификатор: 4354 (0x1102)
Идентификатор меню: 1 (0x1)
Формат: PCM
Параметр Endianness формата: Big
Параметр Sign формата: Signed
Режим смешивания: Blu-ray
Идентификатор кодека: 128
Продолжительность: 24 м.
Вид битрейта: Постоянный
Битрейт: 2304 Кбит/сек
Каналы: 2 канала
Расположение каналов: Front: L R
Частота: 48,0 КГц
Битовая глубина: 24 бит
Размер потока: 399 Мбайт (5%)
01. Not Enough Visitors!
02. Not Enough Time!
[url]...4910001[/url]
[url]...4905834[/url]
[url]...4841057[/url]
[url]...4840816[/url]

- BDRemux
Русскую озвучку можно скачать [url=...4910001]здесь[/url]


Трекер:  [ 10-Янв-2015 19:30 ]

  

Скачать .torrent

Размер .torrent файла 44 KB


Размер: 15.86 GB
Хэш (hash) релиза: 68760bb233b13efaeae800651530923bf79cad64
Подписка на обновления:

Торренты, похожие на Великолепный парк Амаги Amagi Brilliant Park скачать торрент

Форум Название Автор Размер S L Добавлен
Аниме | HD Rips ·· Великолепный парк Амаги / Amagi Brilliant Park [TV+Special] [без хардсаба] [12+6 из 13+6] [JAP+SUB] & [12+0 из 13+6] [RUS(ext)] [2014 г., комедия, романтика, фэнтези, BDRip] [1080p] Galfimbul 2065549979119.24 GB 0 0 1435440602

00:30

28-Июн-15

Аниме | HD Rips ·· Великолепный парк Амаги / Amagi Brilliant Park (Такэмото Ясухиро) [TV] [2 из 13] [без хардсаба] [RUS(ext), JAP+SUB] [2014 г., комедия, фэнтези, BDRip] [1080p] Galfimbul 29634442482.76 GB 0 0 1426993954

06:12

22-Мар-15

Аниме | HD Rips ·· Великолепный парк Амаги / Amagi Brilliant Park (Такэмото Ясухиро) [TV] [2 из 13] [без хардсаба] [RUS(ext), JAP+SUB] [2014 г., комедия, фэнтези, BDRip] [720p] Galfimbul 15446141321.44 GB 0 0 1420712018

13:13

8-Янв-15

Аниме | HD Rips ·· Великолепный парк Амаги / Amagi Brilliant Park [TV] [13 из 13] [Без хардсаба] [RUS(int), JAP+SUB] [2014 г., комедия, романтика, фантастика, HDTVRip] [720p] Galfimbul 57733639315.38 GB 0 0 1420276613

12:16

3-Янв-15

Аниме | Rips ·· Великолепный парк Амаги / Amagi Brilliant Park [TV] [01 из 13] [Без хардсаба] [RUS(int), JAP + SUB] [2014 г., приключения, HDTVRip] [HWP] Galfimbul 390660106373 MB 0 0 1412885087

23:04

9-Окт-14

Аниме | HD Rips ·· Великолепный парк Амаги / Amagi Brilliant Park [TV] [01 из 13] [Без хардсаба] [RUS(int), JAP+SUB] [2014 г., приключения, HDTVRip] [720p] Galfimbul 549804102524 MB 0 0 1412876173

20:36

9-Окт-14

Аниме | HD Rips ·· Великолепный парк Амаги / Amagi Brilliant Park (Такэмото Ясухиро) [TV] [1 из 13] [Без хардсаба] [JAP+SUB] [2014 г., Комедия, фентези, HDTVRip] [720p] Galfimbul 515105087491 MB 0 0 1412779634

17:47

8-Окт-14

Еще никто не оставлял запись к записи скачать торрент Великолепный парк Амаги Amagi Brilliant Park . Будь первым!

!Обратная связь