Скачать через торрент Как из заурядной девушки воспитать героиню Saenai Heroine no Sodatekata бесплатно Аниме Все серии на русском torrent

Если у вас наблюдаются проблемы со скриншотами, переходом по ссылками, скачиванием торрентов - проблемы в блокировщике рекламы AdBlock. #хорошегоДня!


Статистика раздачи
Размер:  318 MB   |    Зарегистрирован:  2 года 8 месяцев   |    .torrent скачан:  45 раз   |   
Раздают:  1  
   
Загрузка...
 
Автор Сообщение

Galfimbul

avatar Galfimbul


Как из заурядной девушки воспитать героиню | Saenai Heroine no Sodatekata


Год выпуска: 2015
Страна: Япония
Жанр: комедия, романтика, школа.
Режиссёр: Камэй Канта.
Студия: A-1 Pictures Inc. (подробнее...)

Перевод:
Русские субтитры: [YakuSub Studio]
Описание: Томоя Аки — рядовой отаку, работающий на полставки только ради того, чтобы хватало денег для покупки аниме. Однажды во время весенних каникул он встречает прекрасную девушку, которая настолько западает ему в душу, что парень решает сделать её прототипом героини своего собственного симулятора свиданий. К созданию игры Томоя привлекает двух девушек из своей школы; а заодно выясняется, что таинственная незнакомка учится в его классе, только её почему-то никто не замечает., World Art.
Качество: HDTVRip | Формат: MP4 | Тип видео: без хардсаба | Продолжительность: ТВ (11+1 эп.), 25 мин. | Видео: [Leopard-Raws]
Видео кодек: H.264
Аудио кодек: AAC
Видео: H.264; 1280x720; ~1737Kbps, 23.976fps; (8 bit)
Аудио: JAP, AAC; 48000Hz; ~192Kbps (2ch);
[spoiler="Скриншоты [превью]"] [/spoiler]
00.Fan Service of Love and Youth.

Общее
Полное имя : C:\Users\Home PC\Videos\Раздачи\Saenai Heroine no Sodatekata\Saenai Heroine no Sodatekata - 00.mp4
Формат : MPEG-4
Профиль формата : Base Media
Идентификатор кодека : isom
Размер файла : 318 Мбайт
Продолжительность : 22 м.
Режим общего битрейта : Переменный
Общий поток : 1933 Кбит/сек
Дата кодирования : UTC 2015-01-09 02:44:24
Дата пометки : UTC 2015-01-09 02:44:24

Видео
Идентификатор : 1
Формат : AVC
Формат/Информация : Advanced Video Codec
Профиль формата : High@L4.1
Параметр CABAC формата : Да
Параметр ReFrames формата : 4 кадра
Идентификатор кодека : avc1
Идентификатор кодека/Информация : Advanced Video Coding
Продолжительность : 22 м.
Битрейт : 1737 Кбит/сек
Максимальный битрейт : 17,5 Мбит/сек
Ширина : 1280 пикселей
Высота : 720 пикселей
Соотношение сторон : 16:9
Режим частоты кадров : Постоянный
Частота кадров : 23,976 кадра/сек
Цветовое пространство : YUV
Субдискретизация насыщенности : 4:2:0
Битовая глубина : 8 бит
Тип развёртки : Прогрессивная
Бит/(Пиксели*Кадры) : 0.079
Размер потока : 286 Мбайт (90%)
Заголовок : 264:fps=23.976@GPAC0.5.1-DEV-rev4929
Библиотека кодирования : x264 core 129 r2245+729M 1a52e03
Настройки программы : cabac=1 / ref=4 / deblock=1:1:-1 / analyse=0x3:0x113 / me=umh / subme=9 / psy=1 / fade_compensate=0.00 / psy_rd=1.00:0.00 / mixed_ref=1 / me_range=24 / chroma_me=1 / trellis=2 / 8x8dct=1 / cqm=0 / deadzone=21,11 / fast_pskip=1 / chroma_qp_offset=-2 / threads=8 / lookahead_threads=1 / sliced_threads=0 / nr=0 / decimate=1 / interlaced=0 / bluray_compat=0 / constrained_intra=0 / fgo=0 / bframes=9 / b_pyramid=2 / b_adapt=2 / b_bias=0 / direct=1 / weightb=1 / open_gop=0 / weightp=2 / keyint=240 / keyint_min=24 / scenecut=40 / intra_refresh=0 / rc=crf / mbtree=0 / crf=18.5 / qcomp=0.72 / qpmin=0 / qpmax=69 / qpstep=4 / ip_ratio=1.40 / pb_ratio=1.30 / aq=1:0.85
Дата кодирования : UTC 2015-01-09 02:44:24
Дата пометки : UTC 2015-01-09 02:44:26
Основные цвета : BT.709
Характеристики трансфера : BT.709
Коэффициенты матрицы : BT.709

Аудио
Идентификатор : 2
Формат : AAC
Формат/Информация : Advanced Audio Codec
Профиль формата : LC
Идентификатор кодека : 40
Продолжительность : 22 м.
Вид битрейта : Переменный
Битрейт : 192 Кбит/сек
Максимальный битрейт : 245 Кбит/сек
Каналы : 2 канала
Расположение каналов : Front: L R
Частота : 48,0 КГц
Метод сжатия : С потерями
Размер потока : 31,6 Мбайт (10%)
Язык : Japanese
Дата кодирования : UTC 2015-01-08 18:49:57
Дата пометки : UTC 2015-01-09 02:44:26

Внимание! Это обновляемая раздача. Серии добавляются по мере выхода русских субтитров.



Трекер:  [ 10-Янв-2015 16:30 ]

  

Скачать .torrent

Размер .torrent файла 13 KB


Размер: 318 MB
Хэш (hash) релиза: 5c46a55ddd5549a2247caf3699c96903fd31a6a0
Подписка на обновления:

Торренты, похожие на Как из заурядной девушки воспитать героиню Saenai Heroine no Sodatekata скачать торрент

Форум Название Автор Размер S L Добавлен
Аниме | Rips ·· Как из заурядной девушки воспитать героиню / Saenai Heroine no Sodatekata / Saekano: How to Raise a Boring Girlfriend [TV] [01 из >11] [Без хардсаба] [RUS(int), JAP+SUB] [2015 г., комедия, HDTVRip] [HWP] Galfimbul 263240202251 MB 0 0 1421578307

13:51

18-Янв-15

Еще никто не оставлял запись к записи скачать торрент Как из заурядной девушки воспитать героиню Saenai Heroine no Sodatekata . Будь первым!

!Обратная связь