Скачать через торрент Тень повелителя Тень сёгуна Фильм бесплатно в хорошем качестве torrent

Скачивайте на UnionPeer.org фильмы через торрент без регистрации. Новинки кино в хорошем качестве через торрент. На UnionPeer.org можно скачать через торрент фильмы 2014 и 2015 годов. Самые новые фильмы.

Скачать торрент Тень повелителя Тень сёгуна бесплатно через .torrent фильм мультфильм сериал

Если у вас наблюдаются проблемы со скриншотами, переходом по ссылками, скачиванием торрентов - проблемы в блокировщике рекламы AdBlock. #хорошегоДня!


Статистика раздачи
Размер:  1.46 GB   |    Зарегистрирован:  2 года 10 месяцев   |    .torrent скачан:  66 раз   |   
Раздают:  1  
   
Загрузка...
 
Автор Сообщение

Galfimbul

avatar Galfimbul


Тень повелителя / Тень сёгуна / Shôgun Iemitsu no ranshin - Gekitotsu

Страна: Япония
Жанр: боевик, драма, приключения, история
Год выпуска: 1989
Продолжительность: 01:51:33
Перевод: Одноголосый закадровый
Cубтитры: нет
Оригинальная аудиодорожка: нет

Режиссер: Ясуо Фурухата / Ясуо Фурухата

В ролях: Кен Огата, Норихито Арай, Тосихиро Ашари, Сонни Тиба, Сэйдзо Фукумото, Цзяньцан Ху, Миюки Кано, Масаки Кёмото, Хироки Мацуката, Такеши Майя...

Описание: Иэмицу, третий сёгун эпохи Токугава, ненавидит своего старшего сына Такэтиё. Однажды он приказывает ему отправиться в Эдо в сопровождении верного Хотта Масамори и семи самураев. Хотта подозревает неладное, но не может не подчиниться приказу. Ночью на путешественников нападает армия сёгуна…

Релиз от -

Сэмпл: http://multi-up.com/1025107

Качество видео: DVDRip
Формат видео: AVI

Видео: MPEG-4 Visual at 1677 Кбит/сек; 704 x 400 (1.760) at 23.976 fps
Аудио: AC-3 at 192 Кбит/сек; 2 канала, 48,0 КГц

Автор -
Общее
Полное имя : D:\Фильмы\Азиатские\Тень сёгуна\The shadow Lord.1989.DVDrip.XviD.1400MB. rip by [Assassin's Creed].avi
Формат : AVI
Формат/Информация : Audio Video Interleave
Размер файла : 1,46 Гбайт
Продолжительность : 1 ч. 51 м.
Общий поток : 1878 Кбит/сек
Программа кодирования : VirtualDubMod 1.5.10.3 | www.virtualdub-fr.org || (build 2550/release)
Библиотека кодирования : VirtualDubMod build 2550/release

Видео
Идентификатор : 0
Формат : MPEG-4 Visual
Профиль формата : Advanced Simple@L5
Параметр BVOP формата : 1
Параметр QPel формата : Нет
Параметр GMC формата : Без точки перехода
Параметр матрицы формата : Default (MPEG)
Идентификатор кодека : XVID
Идентификатор кодека/Подсказка : XviD
Продолжительность : 1 ч. 51 м.
Битрейт : 1677 Кбит/сек
Ширина : 704 пикселя
Высота : 400 пикселей
Соотношение сторон : 16:9
Частота кадров : 23,976 кадра/сек
Цветовое пространство : YUV
Субдискретизация насыщенности : 4:2:0
Битовая глубина : 8 бит
Тип развёртки : Прогрессивная
Метод сжатия : С потерями
Бит/(Пиксели*Кадры) : 0.248
Размер потока : 1,31 Гбайт (89%)
Библиотека кодирования : XviD 1.2.1 (UTC 2008-12-04)

Аудио
Идентификатор : 1
Формат : AC-3
Формат/Информация : Audio Coding 3
Расширение режима : CM (complete main)
Параметр Endianness формата : Big
Идентификатор кодека : 2000
Продолжительность : 1 ч. 51 м.
Вид битрейта : Постоянный
Битрейт : 192 Кбит/сек
Каналы : 2 канала
Расположение каналов : Front: L R
Частота : 48,0 КГц
Битовая глубина : 16 бит
Метод сжатия : С потерями
Размер потока : 153 Мбайт (10%)
Выравнивание : Разделение по промежуткам
Продолжительность промежутка : 42 мс. (1,00 видеокадр)
Время предзагрузки промежутка : 500 мс.


Трекер:  [ 07-Янв-2015 21:00 ]

  

Скачать .torrent

Размер .torrent файла 15 KB


Размер: 1.46 GB
Хэш (hash) релиза: 8d3112a315bd3761c35967474d762b8d13005e59
Подписка на обновления:

Еще никто не оставлял запись к записи скачать торрент Тень повелителя Тень сёгуна . Будь первым!

!Обратная связь