Скачать через торрент Медвежья буря, лилий ураган Yuri Kuma Arashi бесплатно Аниме Все серии на русском torrent

Если у вас наблюдаются проблемы со скриншотами, переходом по ссылками, скачиванием торрентов - проблемы в блокировщике рекламы AdBlock. #хорошегоДня!


Статистика раздачи
Размер:  404 MB   |    Зарегистрирован:  2 года 11 месяцев   |    .torrent скачан:  39 раз   |   
Раздают:  1  
   
Загрузка...
 
Автор Сообщение

Galfimbul

avatar Galfimbul


Медвежья буря, лилий ураган / Шторм Медведя Лилии / Yuri Kuma Arashi
Страна: Япония
Год выпуска: 2015 г.
Тип: TV
Жанр: Сёдзё-ай
Продолжительность: 12 эп. по 25 мин
Русские субтитры: DLYS & Timecraft
Переводчик: hoshizora
Оформление: Surokune
Редактор: Uker
Режиссер: Икухара Кунихико

Студия:

Описание:
Однажды утром Камелия Курэха и Идзумино Флори, ученицы академии «Буревестная», вместе любовались цветами лилий на клумбе, что хранит память об их любви. И вдруг завопил «Медвежий ревун» — глашатай, что возвестил о вторжении медведей.
Что же это за медведи? Загадок становится всё больше — они как волны, что в час бури набегают одна за другой. Поднимается занавес. Да начнётся медвежья буря — прекрасных лилий ураган!

Качество: HDTVRip | Равка: Leopard-Raws Формат: mp4 | Тип Видео: без хардсаба
Видео кодек: AVC
Видео: AVC, 8 bits, 1280x720, 2157 kbps, 23.976 fps, (16:9)
Аудио:
1. JP - AAC, 192 kbps, 48.0 KHz, 2 ch
01. Episode 1
Общее
Полное имя : D:\[Leopard-Raws]\[Leopard-Raws] Yuri Kuma Arashi\[Leopard-Raws] Yuri Kuma Arashi - 01 RAW (MX 1280x720 x264 AAC).mp4
Формат : MPEG-4
Профиль формата : Base Media
Идентификатор кодека : isom
Размер файла : 404 Мбайт
Продолжительность : 23 м.
Режим общего битрейта : Переменный
Общий поток : 2353 Кбит/сек
Дата кодирования : UTC 2015-01-05 18:27:12
Дата пометки : UTC 2015-01-05 18:27:12

Видео
Идентификатор : 1
Формат : AVC
Формат/Информация : Advanced Video Codec
Профиль формата : High@L4.1
Параметр CABAC формата : Да
Параметр ReFrames формата : 4 кадра
Идентификатор кодека : avc1
Идентификатор кодека/Информация : Advanced Video Coding
Продолжительность : 23 м.
Битрейт : 2157 Кбит/сек
Максимальный битрейт : 16,0 Мбит/сек
Ширина : 1280 пикселей
Высота : 720 пикселей
Соотношение сторон : 16:9
Режим частоты кадров : Постоянный
Частота кадров : 23,976 кадра/сек
Цветовое пространство : YUV
Субдискретизация насыщенности : 4:2:0
Битовая глубина : 8 бит
Тип развёртки : Прогрессивная
Бит/(Пиксели*Кадры) : 0.098
Размер потока : 370 Мбайт (92%)
Заголовок : 264:fps=23.976@GPAC0.5.1-DEV-rev4929
Библиотека кодирования : x264 core 129 r2245+729M 1a52e03
Настройки программы : cabac=1 / ref=4 / deblock=1:1:-1 / analyse=0x3:0x113 / me=umh / subme=9 / psy=1 / fade_compensate=0.00 / psy_rd=1.00:0.00 / mixed_ref=1 / me_range=24 / chroma_me=1 / trellis=2 / 8x8dct=1 / cqm=0 / deadzone=21,11 / fast_pskip=1 / chroma_qp_offset=-2 / threads=8 / lookahead_threads=1 / sliced_threads=0 / nr=0 / decimate=1 / interlaced=0 / bluray_compat=0 / constrained_intra=0 / fgo=0 / bframes=9 / b_pyramid=2 / b_adapt=2 / b_bias=0 / direct=1 / weightb=1 / open_gop=0 / weightp=2 / keyint=240 / keyint_min=24 / scenecut=40 / intra_refresh=0 / rc=crf / mbtree=0 / crf=18.5 / qcomp=0.72 / qpmin=0 / qpmax=69 / qpstep=4 / ip_ratio=1.40 / pb_ratio=1.30 / aq=1:0.85
Дата кодирования : UTC 2015-01-05 18:27:12
Дата пометки : UTC 2015-01-05 18:27:14
Основные цвета : BT.709
Характеристики трансфера : BT.709
Коэффициенты матрицы : BT.709

Аудио
Идентификатор : 2
Формат : AAC
Формат/Информация : Advanced Audio Codec
Профиль формата : LC
Идентификатор кодека : 40
Продолжительность : 23 м.
Вид битрейта : Переменный
Битрейт : 192 Кбит/сек
Максимальный битрейт : 227 Кбит/сек
Каналы : 2 канала
Расположение каналов : Front: L R
Частота : 48,0 КГц
Метод сжатия : С потерями
Размер потока : 32,9 Мбайт (8%)
Язык : Japanese
Дата кодирования : UTC 2015-01-05 17:18:48
Дата пометки : UTC 2015-01-05 18:27:14


Трекер:  [ 07-Янв-2015 05:00 ]

  

Скачать .torrent

Размер .torrent файла 16 KB


Размер: 404 MB
Хэш (hash) релиза: 047185209eb310af41ba0c669df40657cba8ce61
Подписка на обновления:

Еще никто не оставлял запись к записи скачать торрент Медвежья буря, лилий ураган Yuri Kuma Arashi . Будь первым!

!Обратная связь