Скачать через торрент музыку Монахиня из Монца La Monaca Di Monza бесплатно без регистрации torrent

Если у вас наблюдаются проблемы со скриншотами, переходом по ссылками, скачиванием торрентов - проблемы в блокировщике рекламы AdBlock. #хорошегоДня!


Статистика раздачи
Размер:  198 MB   |    Зарегистрирован:  2 года 8 месяцев   |    .torrent скачан:  29 раз   |   
Раздают:  1  
   
Загрузка...
 
Автор Сообщение

Galfimbul

avatar Galfimbul


Монахиня из Монца / La Monaca Di Monza

Жанр: Score
Композитор: Pino Donaggio
Год выпуска диска: 2005
Год выпуска фильма: 1987
Страна-производитель диска: Италия
Издатель (лейбл): Emergency Music
Номер по каталогу: EM 15.05 CD

Аудиокодек: APE (*.ape)
Тип рипа: image+.cue
Битрейт аудио: lossless
Продолжительность: 36:56

Источник: hqshare.net
Наличие сканов в содержимом раздачи: да

Треклист:
01 Diavoli A Monza (1:53)
02 I Segreti Del Parlatorio (2:52)
03 La Vestizione (0:55)
04 Le Lettere (1:44)
05 Omicidio In Monastero (3:35)
06 Il Duello (1:40)
07 La Comunione (2:31)
08 Turbamento (1:53)
09 I Ricordi Di Suor Virginia (2:44)
10 Le Confessioni (3:21)
11 L'Inquisitore (0:29)
12 Fuga Di Osio (1:08)
13 Il Monastero Del Peccato (1:23)
14 Il Postribolo (0:53)
15 La Tentazione (1:41)
16 Salmo I (0:45)
17 L'Incontro (2:23)
18 Intrigo (0:44)
19 Sobborgo Di Monza (1:52)
20 La Monaca Di Monza (2:32)

Доп. информация: Саундтрек Пино Донаджо к ещё одной экранизации скандальной истории порочной любви монахини к графу, обвинённому ранее в убийстве.
Режиссёр Лучиано Одоризи.
EAC extraction logfile from 6. July 2005, 23:11 for CDPino Donaggio / La Monaca di Monza

Used drive : _NEC DVD_RW ND-2510A Adapter: 1 ID: 0Read mode : Secure with NO C2, accurate stream, disable cacheCombined read/write offset correction : 0Overread into Lead-In and Lead-Out : No

Used output format : Internal WAV Routines 44.100 Hz; 16 Bit; Stereo

Other options : Fill up missing offset samples with silence : Yes Delete leading and trailing silent blocks : No Installed external ASPI interface

Range status and errorsSelected range Filename D:\SF EAC Files\La Monaca di Monza.wav

Peak level 100.0 % Range quality 99.9 % CRC 89B12196 Copy OK

No errors occured

End of status report
REM GENRE SoundtrackREM DATE 1987PERFORMER "Pino Donaggio"TITLE "La Monaca Di Monza"FILE "Pino Donaggio - La Monaca Di Monza.ape" WAVE TRACK 01 AUDIO TITLE "Diavoli A Monza" PERFORMER "Pino Donaggio" INDEX 01 00:00:00 TRACK 02 AUDIO TITLE "I Segreti Del Parlatorio" PERFORMER "Pino Donaggio" INDEX 00 01:52:29 INDEX 01 01:52:53 TRACK 03 AUDIO TITLE "La Vestizione" PERFORMER "Pino Donaggio" INDEX 00 04:43:30 INDEX 01 04:44:37 TRACK 04 AUDIO TITLE "Le Lettere" PERFORMER "Pino Donaggio" INDEX 00 05:38:65 INDEX 01 05:39:22 TRACK 05 AUDIO TITLE "Omicidio In Monastero" PERFORMER "Pino Donaggio" INDEX 00 07:21:20 INDEX 01 07:22:71 TRACK 06 AUDIO TITLE "Il Duello" PERFORMER "Pino Donaggio" INDEX 00 10:56:54 INDEX 01 10:57:67 TRACK 07 AUDIO TITLE "La Comunione" PERFORMER "Pino Donaggio" INDEX 00 12:36:36 INDEX 01 12:37:46 TRACK 08 AUDIO TITLE "Turbamento" PERFORMER "Pino Donaggio" INDEX 01 15:08:31 TRACK 09 AUDIO TITLE "I Ricordi Di Suor Virginia" PERFORMER "Pino Donaggio" INDEX 00 17:00:31 INDEX 01 17:01:05 TRACK 10 AUDIO TITLE "Le Confessioni" PERFORMER "Pino Donaggio" INDEX 00 19:44:19 INDEX 01 19:44:70 TRACK 11 AUDIO TITLE "L'Inquisitore" PERFORMER "Pino Donaggio" INDEX 00 23:05:60 INDEX 01 23:06:12 TRACK 12 AUDIO TITLE "Fuga Di Osio" PERFORMER "Pino Donaggio" INDEX 00 23:34:49 INDEX 01 23:35:42 TRACK 13 AUDIO TITLE "Il Monastero Del Peccato" PERFORMER "Pino Donaggio" INDEX 00 24:43:13 INDEX 01 24:43:55 TRACK 14 AUDIO TITLE "Il Postribolo" PERFORMER "Pino Donaggio" INDEX 00 26:06:04 INDEX 01 26:06:52 TRACK 15 AUDIO TITLE "La Tentazione" PERFORMER "Pino Donaggio" INDEX 00 26:58:57 INDEX 01 26:59:69 TRACK 16 AUDIO TITLE "Salmo I" PERFORMER "Pino Donaggio" INDEX 00 28:39:11 INDEX 01 28:40:50 TRACK 17 AUDIO TITLE "L'Incontro" PERFORMER "Pino Donaggio" INDEX 00 29:25:07 INDEX 01 29:25:33 TRACK 18 AUDIO TITLE "Intrigo" PERFORMER "Pino Donaggio" INDEX 00 31:47:23 INDEX 01 31:48:26 TRACK 19 AUDIO TITLE "Sobborgo Di Monza" PERFORMER "Pino Donaggio" INDEX 00 32:31:20 INDEX 01 32:31:67 TRACK 20 AUDIO TITLE "La Monaca Di Monza" PERFORMER "Pino Donaggio" INDEX 00 34:23:18 INDEX 01 34:24:14


Трекер:  [ 07-Янв-2015 00:30 ]

  

Скачать .torrent

Размер .torrent файла 17 KB


Размер: 198 MB
Хэш (hash) релиза: 9ab23798795856e353d925f36cd10024ec116c94

Еще никто не оставлял запись к записи скачать торрент Монахиня из Монца La Monaca Di Monza . Будь первым!

!Обратная связь