Скачать через торрент музыку Страховщик Automata бесплатно без регистрации torrent

Если у вас наблюдаются проблемы со скриншотами, переходом по ссылками, скачиванием торрентов - проблемы в блокировщике рекламы AdBlock. #хорошегоДня!


Статистика раздачи
Размер:  246 MB   |    Зарегистрирован:  2 года 11 месяцев   |    .torrent скачан:  30 раз   |   
Раздают:  1  
   
Загрузка...
 
Автор Сообщение

Galfimbul

avatar Galfimbul


Страховщик / Automata


Жанр: Score || Композитор: Zacarias M. de la Riva || Год выпуска диска: 2014 || Страна-производитель диска: Sweden || Аудио кодек: FLAC (*.flac) || Тип рипа: image+.cue || Битрейт аудио: lossless || Продолжительность: 00:54:13 || Источник: OscarRomelPR || Наличие сканов в содержимом раздачи: нет
Треклист:
01. The Earth (01:52)
02. We Want to Live (02:50)
03. Robot On Fire (01:00)
04. Apology (04:28)
05. Desperation (03:30)
06. Birth of a New Robot (04:14)
07. Good Luck Jacq (02:28)
08. The Precedent (04:26)
09. A Night Out Dancing (04:53)
10. The Canyon, Pt. 1 (02:06)
11. The Canyon, Pt. 2 (03:52)
12. Meeting Cleo (02:45)
13. Into the Desert (03:30)
14. I'm Burnt Out (01:58)
15. Locker (02:44)
16. New Robot Appears (01:30)
17. Badly Wounded (01:43)
18. Automata Requiem (04:22)
Exact Audio Copy V1.0 beta 3 from 29. August 2011

EAC extraction logfile from 18. December 2014, 3:37

Zacarías Martínez de la Riva / Automata

Used drive : hp DVD A DS8A8SH Adapter: 0 ID: 1

Read mode : SecureUtilize accurate stream : YesDefeat audio cache : YesMake use of C2 pointers : No

Read offset correction : 6Overread into Lead-In and Lead-Out : NoFill up missing offset samples with silence : YesDelete leading and trailing silent blocks : NoNull samples used in CRC calculations : YesUsed interface : Native Win32 interface for Win NT & 2000

Used output format : Internal WAV RoutinesSample format : 44.100 Hz; 16 Bit; Stereo

TOC of the extracted CD

Track | Start | Length | Start sector | End sector --------------------------------------------------------- 1 | 0:00.00 | 1:52.04 | 0 | 8403 2 | 1:52.04 | 2:49.74 | 8404 | 21152 3 | 4:42.03 | 0:59.72 | 21153 | 25649 4 | 5:42.00 | 4:28.17 | 25650 | 45766 5 | 10:10.17 | 3:30.01 | 45767 | 61517 6 | 13:40.18 | 4:14.24 | 61518 | 80591 7 | 17:54.42 | 2:28.04 | 80592 | 91695 8 | 20:22.46 | 4:26.34 | 91696 | 111679 9 | 24:49.05 | 4:53.04 | 111680 | 133658 10 | 29:42.09 | 2:06.06 | 133659 | 143114 11 | 31:48.15 | 3:51.73 | 143115 | 160512 12 | 35:40.13 | 2:45.43 | 160513 | 172930 13 | 38:25.56 | 3:30.01 | 172931 | 188681 14 | 41:55.57 | 1:57.74 | 188682 | 197530 15 | 43:53.56 | 2:44.22 | 197531 | 209852 16 | 46:38.03 | 1:29.74 | 209853 | 216601 17 | 48:08.02 | 1:43.06 | 216602 | 224332 18 | 49:51.08 | 4:22.10 | 224333 | 243992

Range status and errors

Selected range

Filename C:\_\Media\Music\_RIPPED\Zacarías Martínez de la Riva - Automata.wav

Peak level 100.0 % Extraction speed 3.1 X Range quality 100.0 % Test CRC 7EA64FF9 Copy CRC 7EA64FF9 Copy OK

No errors occurred

AccurateRip summary

Track 1 not present in databaseTrack 2 not present in databaseTrack 3 not present in databaseTrack 4 not present in databaseTrack 5 not present in databaseTrack 6 not present in databaseTrack 7 not present in databaseTrack 8 not present in databaseTrack 9 not present in databaseTrack 10 not present in databaseTrack 11 not present in databaseTrack 12 not present in databaseTrack 13 not present in databaseTrack 14 not present in databaseTrack 15 not present in databaseTrack 16 not present in databaseTrack 17 not present in databaseTrack 18 not present in database

None of the tracks are present in the AccurateRip database

End of status report

---- CUETools DB Plugin V2.1.3

[CTDB TOCID: vn97piKxNHJFRJyVlrm5jshHlQU-] disk not present in database, Submit result: vn97piKxNHJFRJyVlrm5jshHlQU- has been uploaded
REM GENRE SoundtrackREM DATE 2014REM DISCID E30CB512REM COMMENT "ExactAudioCopy v1.0b3"PERFORMER "Zacarнas Martнnez de la Riva"TITLE "Automata"FILE "Zacarias Martinez de la Riva - Automata.flac" WAVE TRACK 01 AUDIO TITLE "The Earth" PERFORMER "Zacarнas Martнnez de la Riva" INDEX 01 00:00:00 TRACK 02 AUDIO TITLE "We Want to Live" PERFORMER "Zacarнas Martнnez de la Riva" INDEX 01 01:52:04 TRACK 03 AUDIO TITLE "Robot on Fire" PERFORMER "Zacarнas Martнnez de la Riva" INDEX 01 04:42:03 TRACK 04 AUDIO TITLE "Apology" PERFORMER "Zacarнas Martнnez de la Riva" INDEX 01 05:42:00 TRACK 05 AUDIO TITLE "Desperation" PERFORMER "Zacarнas Martнnez de la Riva" INDEX 01 10:10:17 TRACK 06 AUDIO TITLE "Birth of a New Robot" PERFORMER "Zacarнas Martнnez de la Riva" INDEX 01 13:40:18 TRACK 07 AUDIO TITLE "Good Luck Jack" PERFORMER "Zacarнas Martнnez de la Riva" INDEX 01 17:54:42 TRACK 08 AUDIO TITLE "The Precedent" PERFORMER "Zacarнas Martнnez de la Riva" INDEX 01 20:22:46 TRACK 09 AUDIO TITLE "A Night Out Dancing" PERFORMER "Zacarнas Martнnez de la Riva" INDEX 01 24:49:05 TRACK 10 AUDIO TITLE "The Canyon: Part 1" PERFORMER "Zacarнas Martнnez de la Riva" INDEX 01 29:42:09 TRACK 11 AUDIO TITLE "The Canyon: Part 2" PERFORMER "Zacarнas Martнnez de la Riva" INDEX 01 31:48:15 TRACK 12 AUDIO TITLE "Meeting Cleo" PERFORMER "Zacarнas Martнnez de la Riva" INDEX 01 35:40:13 TRACK 13 AUDIO TITLE "Into the Desert" PERFORMER "Zacarнas Martнnez de la Riva" INDEX 01 38:25:56 TRACK 14 AUDIO TITLE "I'm Burnt Out" PERFORMER "Zacarнas Martнnez de la Riva" INDEX 01 41:55:57 TRACK 15 AUDIO TITLE "Locker" PERFORMER "Zacarнas Martнnez de la Riva" INDEX 01 43:53:56 TRACK 16 AUDIO TITLE "New Robot Appears" PERFORMER "Zacarнas Martнnez de la Riva" INDEX 01 46:38:03 TRACK 17 AUDIO TITLE "Badly Wounded" PERFORMER "Zacarнas Martнnez de la Riva" INDEX 01 48:08:02 TRACK 18 AUDIO TITLE "Automata Requiem" PERFORMER "Zacarнas Martнnez de la Riva" INDEX 00 49:41:48 INDEX 01 49:51:08

MP3: [url=...4864248](Score) Страховщик / Automata (by Zacarias M. de la Riva) - 2014, MP3, VBR V0~223 kbps[/url]


Трекер:  [ 02-Янв-2015 20:30 ]

  

Скачать .torrent

Размер .torrent файла 20 KB


Размер: 246 MB
Хэш (hash) релиза: cee15e4e6510fec66b6397f4d8df050ac77ee7d6

Еще никто не оставлял запись к записи скачать торрент Страховщик Automata . Будь первым!

!Обратная связь