Скачать через торрент музыку Евгений Федоров бесплатно без регистрации torrent

Если у вас наблюдаются проблемы со скриншотами, переходом по ссылками, скачиванием торрентов - проблемы в блокировщике рекламы AdBlock. #хорошегоДня!


Статистика раздачи
Размер:  213 MB   |    Зарегистрирован:  2 года 8 месяцев   |    .torrent скачан:  36 раз   |   
Раздают:  1  
   
Загрузка...
 
Автор Сообщение

Galfimbul

avatar Galfimbul


Евгений Фёдоров - Голь (Музыка к спектаклю)

Название альбома: Голь (Музыка к спектаклю)
Жанр: Score
Год выпуска диска: 1999
Страна-производитель диска: Россия
Издатель (лейбл): Feelee
Номер по каталогу: FL 3157-2
Аудиокодек: FLAC (*.flac)
Тип рипа: image+.cue
Битрейт аудио: LosslesS
Продолжительность: 00:48:50
Источник (релизер): vsvserg
Релиз-группа:
Наличие сканов в содержимом раздачи: да

[b]Треклист:[/b]
01. Восток [0:03:13.73]
02. Степь [0:04:26.60]
03. Матушка [0:02:05.69]
04. Город [0:01:24.67]
05. Церковь [0:02:31.46]
06. Вий [0:01:31.28]
07. Ночь [0:03:55.17]
08. Гимн [0:02:18.72]
09. Дождь [0:03:14.68]
10. Вальс капитана Копейкина (Вальс Сенной площади) [0:02:55.53]
11. Танец с саблей [0:02:32.19]
12. Психо [0:03:17.03]
13. Труба и арфа [0:03:51.54]
14. Прощание [0:04:02.10]
15. Арфа [0:03:09.64]
16. Нос [0:01:00.70]
17. Полет головы [0:03:16.66]
Exact Audio Copy V1.0 beta 3 from 29. August 2011

EAC extraction logfile from 30. November 2014, 8:24

Евгений Фёдоров / Голь (Музыка к спектаклю)

Used drive : TSSTcorpCDDVDW SE-S084D Adapter: 1 ID: 0

Read mode : SecureUtilize accurate stream : YesDefeat audio cache : YesMake use of C2 pointers : No

Read offset correction : 6Overread into Lead-In and Lead-Out : NoFill up missing offset samples with silence : YesDelete leading and trailing silent blocks : NoNull samples used in CRC calculations : YesUsed interface : Native Win32 interface for Win NT & 2000

Used output format : User Defined EncoderSelected bitrate : 896 kBit/sQuality : HighAdd ID3 tag : NoCommand line compressor : C:\Program Files\FLAC\flac.exeAdditional command line options : -5 -V -T "Date=%year%" -T "Genre=%genre%" -T "COMMENT=vsvserg®" %source%

TOC of the extracted CD

Track | Start | Length | Start sector | End sector --------------------------------------------------------- 1 | 0:00.00 | 3:13.73 | 0 | 14547 2 | 3:13.73 | 4:26.60 | 14548 | 34557 3 | 7:40.58 | 2:05.69 | 34558 | 44001 4 | 9:46.52 | 1:24.67 | 44002 | 50368 5 | 11:11.44 | 2:31.46 | 50369 | 61739 6 | 13:43.15 | 1:31.28 | 61740 | 68592 7 | 15:14.43 | 3:55.17 | 68593 | 86234 8 | 19:09.60 | 2:18.72 | 86235 | 96656 9 | 21:28.57 | 3:14.68 | 96657 | 111274 10 | 24:43.50 | 2:55.53 | 111275 | 124452 11 | 27:39.28 | 2:32.19 | 124453 | 135871 12 | 30:11.47 | 3:17.03 | 135872 | 150649 13 | 33:28.50 | 3:51.54 | 150650 | 168028 14 | 37:20.29 | 4:02.10 | 168029 | 186188 15 | 41:22.39 | 3:09.64 | 186189 | 200427 16 | 44:32.28 | 1:00.70 | 200428 | 204997 17 | 45:33.23 | 3:16.66 | 204998 | 219763

Range status and errors

Selected range

Filename C:\vsvserg-Rip\Евгений Фёдоров - Голь (Музыка к спектаклю).wav

Peak level 100.0 % Extraction speed 4.2 X Range quality 100.0 % Test CRC 44837896 Copy CRC 44837896 Copy OK

No errors occurred

AccurateRip summary

Track 1 not present in databaseTrack 2 not present in databaseTrack 3 not present in databaseTrack 4 not present in databaseTrack 5 not present in databaseTrack 6 not present in databaseTrack 7 not present in databaseTrack 8 not present in databaseTrack 9 not present in databaseTrack 10 not present in databaseTrack 11 not present in databaseTrack 12 not present in databaseTrack 13 not present in databaseTrack 14 not present in databaseTrack 15 not present in databaseTrack 16 not present in databaseTrack 17 not present in database

None of the tracks are present in the AccurateRip database

End of status report

---- CUETools DB Plugin V2.1.4

[CTDB TOCID: 1zoE10UOlAb8Klccxqje7jYUcxA-] disk not present in databaseSubmit result: 1zoE10UOlAb8Klccxqje7jYUcxA- has been uploaded

==== Log checksum 60A837876481BB2B572C7BEA733E2BC52DFCFD43ECBB1241A79694623BDC921D ====
-----------------------

DON'T MODIFY THIS FILE

-----------------------

PERFORMER: auCDtect Task Manager, ver. 1.5.1RC6 build 1.5.1.7Copyright (c) 2008-2010 y-soft. All rights reservedhttp://y-soft.org

ANALYZER: auCDtect: CD records authenticity detector, version 0.8.2Copyright (c) 2004 Oleg Berngardt. All rights reserved.Copyright (c) 2004 Alexander Djourik. All rights reserved.

FILE: Евгений Фёдоров - Голь (Музыка к спектаклю).flac Size: 216779116 Hash: 8E49F682A38E4CF8238D407BB7B7A932 Accuracy: -m8 Conclusion: CDDA 100% Signature: 20271AB5158A10567B6565C25AF73D9EA1C187C2
Доп. информация: Feelee FL 3157-2 CD, Album 1999 Russia
Музыка к спектаклю "Голь". Лидер питерской TEQUILAJAZZZ Евгений Федоров, как я считаю, - выдающийся музыкант. Дальше рецензии не будет - так, мысли… "Восток" (говорят, что Фил Киркоров купил новый альбом Таркана). "Степь", без начала и конца, унылая. "Церковь", полное ощущение присутствия. "Вий", эротичный монстр. "Танец с саблями", можно заряжать на дискач. "Вальс капитана Копейкина (Вальс Сенной площади)", музыка из шарманки. "Арфа"… Не удивлюсь, если Женя напишет нечто для симфонического оркестра. Enjoy...


Трекер:  [ 01-Янв-2015 16:00 ]

  

Скачать .torrent

Размер .torrent файла 18 KB


Размер: 213 MB
Хэш (hash) релиза: f1af708ebe5730edee61d4b7b23278f9e0e9998c

Еще никто не оставлял запись к записи скачать торрент Евгений Федоров . Будь первым!

!Обратная связь