Скачать через торрент Изгнанные из Рая Rakuen Tsuihou: Expelled from Paradise бесплатно Аниме Все серии на русском torrent

Если у вас наблюдаются проблемы со скриншотами, переходом по ссылками, скачиванием торрентов - проблемы в блокировщике рекламы AdBlock. #хорошегоДня!


Статистика раздачи
Размер:  1.55 GB   |    Зарегистрирован:  2 года 8 месяцев   |    .torrent скачан:  128 раз   |   
Раздают:  1  
   
Загрузка...
 
Автор Сообщение

Galfimbul

avatar Galfimbul


Изгнанные из Рая / Rakuen Tsuihou: Expelled from Paradise

Страна: Япония
Год выпуска: 2014 г.
Жанр: Приключения
Тип: Movie
Продолжительность: 105 мин.
Режиссер: Мидзусима Сэйдзи
Студия: Graphinica / Toei Animation


Описание: Действие происходит на Земле, но в будущем, в 2700 году. Большая часть человечества живёт в кибер мире, где только разум имеет значение. Анджела из кибер-мира приходит на Землю. У неё есть мощная броня Ахан. Так и начался её тернистый путь выживания.

Качество: BDRip
Тип релиза: Без хардсаба
Формат видео: MKV
Наличие линковки: Нет
Видео: x264; 1280x720; 23.976fps; ~ 1980 Kbps
Аудио: Rus - Aac; 48.0 khz; 2.0ch; 192kbps Язык Русский (в составе контейнера) ; Озвучка: (Многоголосая), OVERLORDS & Jackie-O & Marie Bibika
Аудио 2: Jap - Aac; 48.0 khz; 2.0ch; 192kbps Язык Японский ; Озвучка 2: Оригинал
Format : MPEG-4Format profile : Base MediaCodec ID : isomFile size : 1.55 GiBDuration : 1h 44mnOverall bit rate mode : VariableOverall bit rate : 2 130 KbpsWriting application : Lavf55.48.100

VideoID : 1Format : AVCFormat/Info : Advanced Video CodecFormat profile : High@L3.1Format settings, CABAC : YesFormat settings, ReFrames : 4 framesCodec ID : avc1Codec ID/Info : Advanced Video CodingDuration : 1h 43mnBit rate : 1 980 KbpsWidth : 1 280 pixelsHeight : 720 pixelsDisplay aspect ratio : 16:9Frame rate mode : ConstantFrame rate : 23.976 fpsColor space : YUVChroma subsampling : 4:2:0Bit depth : 8 bitsScan type : ProgressiveBits/(Pixel*Frame) : 0.090Stream size : 1.43 GiB (93%)Writing library : x264 core 142Encoding settings : cabac=1 / ref=3 / deblock=1:0:0 / analyse=0x3:0x113 / me=hex / subme=7 / psy=1 / psy_rd=1.00:0.00 / mixed_ref=1 / me_range=16 / chroma_me=1 / trellis=1 / 8x8dct=1 / cqm=0 / deadzone=21,11 / fast_pskip=1 / chroma_qp_offset=-2 / threads=8 / lookahead_threads=1 / sliced_threads=0 / nr=0 / decimate=1 / interlaced=0 / bluray_compat=0 / constrained_intra=0 / bframes=3 / b_pyramid=2 / b_adapt=1 / b_bias=0 / direct=1 / weightb=1 / open_gop=0 / weightp=2 / keyint=250 / keyint_min=23 / scenecut=40 / intra_refresh=0 / rc_lookahead=40 / rc=2pass / mbtree=1 / bitrate=1980 / ratetol=1.0 / qcomp=0.60 / qpmin=0 / qpmax=69 / qpstep=4 / cplxblur=20.0 / qblur=0.5 / ip_ratio=1.40 / aq=1:1.00

AudioID : 2Format : AACFormat/Info : Advanced Audio CodecFormat profile : LCCodec ID : 40Duration : 1h 44mnDuration_LastFrame : -13msBit rate mode : VariableBit rate : 151 KbpsMaximum bit rate : 192 KbpsChannel(s) : 2 channelsChannel positions : Front: L RSampling rate : 44.1 KHzCompression mode : LossyStream size : 113 MiB (7%)


Трекер:  [ 29-Дек-2014 20:30 ]

  

Скачать .torrent

Размер .torrent файла 16 KB


Размер: 1.55 GB
Хэш (hash) релиза: 211773dfa68a00579c5f34d02cbb29e4e29720d6
Подписка на обновления:

Торренты, похожие на Изгнанные из Рая Rakuen Tsuihou: Expelled from Paradise скачать торрент

Форум Название Автор Размер S L Добавлен
Аниме | HD Rips ·· Изгнанные из Рая / Rakuen Tsuihou: Expelled from Paradise [Movie] [Без хардсаба] [JAP, SUB] [2014, приключения, фантастика, меха, BDRip] [1080p] Galfimbul 1168804349310.89 GB 0 0 1479582465

22:07

19-Ноя-16

Аниме | Rips ·· Изгнанные из Рая / Rakuen Tsuihou Expelled from Paradise [Movie] [Без хардсаба] [RUS(int), JAP+SUB] [2014 г., Экшен, меха, фантастика, BDRip] [720p] Galfimbul 19971753741.86 GB 0 0 1425160049

00:47

1-Мар-15

Аниме | Rips ·· Изгнанные из Рая / Rakuen Tsuihou: Expelled from Paradise [Movie] [Без хардсаба] [RUS(int), JAP+SUB] [2014 г., приключения, фантастика, меха, BDRip] [HWP] Galfimbul 18265303131.7 GB 0 0 1424697415

16:16

23-Фев-15

Аниме | HD Rips ·· Изгнанные из Рая / Rakuen Tsuihou: Expelled from Paradise [Movie] [Без хардсаба] [RUS(int), JAP] [2014 г., приключения, BDRip] [1080p] Galfimbul 96625193129 GB 0 0 1420294395

17:13

3-Янв-15

Аниме | HD Rips ·· Изгнанные из Рая / Rakuen Tsuihou Expelled from Paradise [Movie] [Без хардсаба] [JAP, SUB] [2014 г., приключения, BDRip] [720p] Galfimbul 22966655802.14 GB 0 0 1419945363

16:16

30-Дек-14

Еще никто не оставлял запись к записи скачать торрент Изгнанные из Рая Rakuen Tsuihou: Expelled from Paradise . Будь первым!

!Обратная связь