Скачать через торрент музыку Исполнитель желаний 2: Зло бессмертно Wishmaster 2: Evil Never Dies бесплатно без регистрации torrent

Если у вас наблюдаются проблемы со скриншотами, переходом по ссылками, скачиванием торрентов - проблемы в блокировщике рекламы AdBlock. #хорошегоДня!


Статистика раздачи
Размер:  230 MB   |    Зарегистрирован:  2 года 8 месяцев   |    .torrent скачан:  30 раз   |   
Раздают:  1  
   
Загрузка...
 
Автор Сообщение

Galfimbul

avatar Galfimbul


Исполнитель желаний 2: Зло бессмертно / Wishmaster 2: Evil Never Dies

Жанр: Score
Композитор: David Williams
Год выпуска диска: 2001
Год выпуска фильма: 1999
Страна-производитель диска: США
Издатель (лейбл): Beyond Music
Аудиокодек: FLAC (*.flac)
Тип рипа: tracks+.cue
Битрейт аудио: lossless
Продолжительность: 00:44:47
Источник: http://cinemageddon.net/
Наличие сканов в содержимом раздачи: нет
Треклист:
1. The Robbery
2. Transformation
3. Secret of Djinn
4. Morgana
5. Freeze
6. Discoveries
7. Fulfill the Prophecy
8. The Shower
9. Demerest
10. Through the Bars
11. Wishful Thinking
12. Kiss
13. Needing Souls
14. Maybe I Should
15. Claiming Souls
16. Morgana Shot
17. Inside the Gem
18. Wishmaster's Resolve
19. Mayhem
20. End of Djinn
21. End Credits
Exact Audio Copy V1.0 beta 3 from 29. August 2011

EAC extraction logfile from 22. July 2014, 11:22

David Williams / Wishmaster 2: Evil Never Dies

Used drive : TSSTcorpCDDVDW SH-S223L Adapter: 2 ID: 0

Read mode : SecureUtilize accurate stream : YesDefeat audio cache : YesMake use of C2 pointers : No

Read offset correction : 6Overread into Lead-In and Lead-Out : NoFill up missing offset samples with silence : YesDelete leading and trailing silent blocks : NoNull samples used in CRC calculations : YesUsed interface : Native Win32 interface for Win NT & 2000Gap handling : Appended to previous track

Used output format : User Defined EncoderSelected bitrate : 1024 kBit/sQuality : HighAdd ID3 tag : NoCommand line compressor : C:\Program Files (x86)\Exact Audio Copy\FLAC\FLAC.EXEAdditional command line options : -8 -V -T "ARTIST=%artist%" -T "TITLE=%title%" -T "ALBUM=%albumtitle%" -T "DATE=%year%" -T "TRACKNUMBER=%tracknr%" -T "GENRE=%genre%" -T "COMMENT=%comment%" -T "BAND=%albuminterpret%" -T "ALBUMARTIST=%albuminterpret%" -T "COMPOSER=%composer%" %haslyrics%--tag-from-file=LYRICS="%lyricsfile%"%haslyrics% -T "DISCNUMBER=%cdnumber%" -T "TOTALDISCS=%totalcds%" -T "TOTALTRACKS=%numtracks%" %hascover%--picture="%coverfile%"%hascover% %source% -o %dest%

TOC of the extracted CD

Track | Start | Length | Start sector | End sector --------------------------------------------------------- 1 | 0:00.00 | 2:58.54 | 0 | 13403 2 | 2:58.54 | 2:53.61 | 13404 | 26439 3 | 5:52.40 | 1:23.46 | 26440 | 32710 4 | 7:16.11 | 1:44.37 | 32711 | 40547 5 | 9:00.48 | 2:34.26 | 40548 | 52123 6 | 11:34.74 | 1:32.06 | 52124 | 59029 7 | 13:07.05 | 2:00.53 | 59030 | 68082 8 | 15:07.58 | 1:32.66 | 68083 | 75048 9 | 16:40.49 | 1:19.23 | 75049 | 80996 10 | 17:59.72 | 1:26.71 | 80997 | 87517 11 | 19:26.68 | 1:17.38 | 87518 | 93330 12 | 20:44.31 | 0:59.27 | 93331 | 97782 13 | 21:43.58 | 1:46.39 | 97783 | 105771 14 | 23:30.22 | 0:59.16 | 105772 | 110212 15 | 24:29.38 | 2:08.42 | 110213 | 119854 16 | 26:38.05 | 1:17.37 | 119855 | 125666 17 | 27:55.42 | 4:12.33 | 125667 | 144599 18 | 32:08.00 | 1:30.09 | 144600 | 151358 19 | 33:38.09 | 2:37.01 | 151359 | 163134 20 | 36:15.10 | 4:59.74 | 163135 | 185633 21 | 41:15.09 | 3:32.08 | 185634 | 201541

Track 1

Filename D:\EAC\David Williams - Wishmaster 2- Evil Never Dies\01. David Williams - The Robbery.wav

Pre-gap length 0:00:02.00

Peak level 98.0 % Extraction speed 0.2 X Track quality 100.0 % Test CRC 28F7C9DB Copy CRC 28F7C9DB Accurately ripped (confidence 1) [E76967CB] (AR v2) Copy OK

Track 2

Filename D:\EAC\David Williams - Wishmaster 2- Evil Never Dies\02. David Williams - Transformation.wav

Pre-gap length 0:00:04.22

Peak level 95.6 % Extraction speed 0.1 X Track quality 100.0 % Test CRC 652769AC Copy CRC 652769AC Accurately ripped (confidence 1) [296D862A] (AR v2) Copy OK

Track 3

Filename D:\EAC\David Williams - Wishmaster 2- Evil Never Dies\03. David Williams - Secret Of Djinn.wav

Pre-gap length 0:00:05.00

Peak level 93.5 % Extraction speed 0.0 X Track quality 100.0 % Test CRC 29C372C6 Copy CRC 29C372C6 Accurately ripped (confidence 1) [40C53C9B] (AR v2) Copy OK

Track 4

Filename D:\EAC\David Williams - Wishmaster 2- Evil Never Dies\04. David Williams - Morgana.wav

Pre-gap length 0:00:06.72

Peak level 37.3 % Extraction speed 0.0 X Track quality 100.0 % Test CRC 36F30D26 Copy CRC 36F30D26 Accurately ripped (confidence 1) [E8481BB6] (AR v2) Copy OK

Track 5

Filename D:\EAC\David Williams - Wishmaster 2- Evil Never Dies\05. David Williams - Freeze.wav

Pre-gap length 0:00:06.72

Peak level 95.7 % Extraction speed 0.0 X Track quality 99.9 % Test CRC 600AD1F7 Copy CRC 600AD1F7 Accurately ripped (confidence 1) [E63290CC] (AR v2) Copy OK

Track 6

Filename D:\EAC\David Williams - Wishmaster 2- Evil Never Dies\06. David Williams - Discoveries.wav

Pre-gap length 0:00:04.29

Peak level 74.9 % Extraction speed 0.0 X Track quality 100.0 % Test CRC 6606CE2B Copy CRC 6606CE2B Accurately ripped (confidence 1) [96770E13] (AR v2) Copy OK

Track 7

Filename D:\EAC\David Williams - Wishmaster 2- Evil Never Dies\07. David Williams - Fulfill the Prophecy.wav

Pre-gap length 0:00:06.72

Peak level 97.9 % Extraction speed 0.1 X Track quality 100.0 % Test CRC CA188779 Copy CRC CA188779 Accurately ripped (confidence 1) [9E3731A9] (AR v2) Copy OK

Track 8

Filename D:\EAC\David Williams - Wishmaster 2- Evil Never Dies\08. David Williams - The Shower.wav

Pre-gap length 0:00:06.72

Peak level 94.5 % Extraction speed 0.0 X Track quality 100.0 % Test CRC 54BE90DC Copy CRC 54BE90DC Accurately ripped (confidence 1) [76A8838C] (AR v2) Copy OK

Track 9

Filename D:\EAC\David Williams - Wishmaster 2- Evil Never Dies\09. David Williams - Demerest.wav

Pre-gap length 0:00:06.72

Peak level 97.4 % Extraction speed 0.0 X Track quality 100.0 % Test CRC F88981BA Copy CRC F88981BA Accurately ripped (confidence 1) [A123E90F] (AR v2) Copy OK

Track 10

Filename D:\EAC\David Williams - Wishmaster 2- Evil Never Dies\10. David Williams - Through The Bares.wav

Pre-gap length 0:00:06.72

Peak level 97.2 % Extraction speed 0.0 X Track quality 99.7 % Test CRC 55C992E5 Copy CRC 55C992E5 Accurately ripped (confidence 1) [EFAED639] (AR v2) Copy OK

Track 11

Filename D:\EAC\David Williams - Wishmaster 2- Evil Never Dies\11. David Williams - Wishful Thinking.wav

Pre-gap length 0:00:06.72

Peak level 97.6 % Extraction speed 0.0 X Track quality 100.0 % Test CRC D30A9337 Copy CRC D30A9337 Accurately ripped (confidence 1) [9D6B46BB] (AR v2) Copy OK

Track 12

Filename D:\EAC\David Williams - Wishmaster 2- Evil Never Dies\12. David Williams - Kiss.wav

Pre-gap length 0:00:06.72

Peak level 96.8 % Extraction speed 0.0 X Track quality 100.0 % Test CRC D7440478 Copy CRC D7440478 Accurately ripped (confidence 1) [CD5CE437] (AR v2) Copy OK

Track 13

Filename D:\EAC\David Williams - Wishmaster 2- Evil Never Dies\13. David Williams - Needing Souls.wav

Pre-gap length 0:00:05.89

Peak level 85.5 % Extraction speed 0.0 X Track quality 99.8 % Test CRC 6D2B6EFC Copy CRC 6D2B6EFC Accurately ripped (confidence 1) [324F28FC] (AR v2) Copy OK

Track 14

Filename D:\EAC\David Williams - Wishmaster 2- Evil Never Dies\14. David Williams - Maybe I Should.wav

Pre-gap length 0:00:06.72

Peak level 70.6 % Extraction speed 0.0 X Track quality 100.0 % Test CRC 392EBB1E Copy CRC 392EBB1E Accurately ripped (confidence 1) [86F3D3E4] (AR v2) Copy OK

Track 15

Filename D:\EAC\David Williams - Wishmaster 2- Evil Never Dies\15. David Williams - Claiming Souls.wav

Pre-gap length 0:00:06.72

Peak level 94.9 % Extraction speed 0.1 X Track quality 100.0 % Test CRC 8FEA36FD Copy CRC 8FEA36FD Accurately ripped (confidence 1) [C48DFFF0] (AR v2) Copy OK

Track 16

Filename D:\EAC\David Williams - Wishmaster 2- Evil Never Dies\16. David Williams - Morgana Shot.wav

Pre-gap length 0:00:05.66

Peak level 89.5 % Extraction speed 0.1 X Track quality 100.0 % Test CRC 1E299C2C Copy CRC 1E299C2C Accurately ripped (confidence 1) [0B322646] (AR v2) Copy OK

Track 17

Filename D:\EAC\David Williams - Wishmaster 2- Evil Never Dies\17. David Williams - Inside The Gem.wav

Pre-gap length 0:00:06.72

Peak level 96.1 % Extraction speed 0.2 X Track quality 100.0 % Test CRC 64BA8735 Copy CRC 64BA8735 Accurately ripped (confidence 1) [7A64D077] (AR v2) Copy OK

Track 18

Filename D:\EAC\David Williams - Wishmaster 2- Evil Never Dies\18. David Williams - Wishmasters Resolve.wav

Pre-gap length 0:00:06.72

Peak level 94.7 % Extraction speed 0.1 X Track quality 100.0 % Test CRC E8D1D177 Copy CRC E8D1D177 Accurately ripped (confidence 1) [3BC9632F] (AR v2) Copy OK

Track 19

Filename D:\EAC\David Williams - Wishmaster 2- Evil Never Dies\19. David Williams - Mayhem.wav

Pre-gap length 0:00:06.72

Peak level 98.9 % Extraction speed 0.1 X Track quality 99.9 % Test CRC 4EE842AD Copy CRC 4EE842AD Accurately ripped (confidence 1) [5C51FDA3] (AR v2) Copy OK

Track 20

Filename D:\EAC\David Williams - Wishmaster 2- Evil Never Dies\20. David Williams - End Of Djinn.wav

Pre-gap length 0:00:06.72

Peak level 98.9 % Extraction speed 0.3 X Track quality 100.0 % Test CRC C65F18E2 Copy CRC C65F18E2 Accurately ripped (confidence 1) [C7945753] (AR v2) Copy OK

Track 21

Filename D:\EAC\David Williams - Wishmaster 2- Evil Never Dies\21. David Williams - End Credits.wav

Pre-gap length 0:00:06.72

Peak level 97.4 % Extraction speed 0.2 X Track quality 100.0 % Test CRC F2F33A4E Copy CRC F2F33A4E Accurately ripped (confidence 1) [C706D6AC] (AR v2) Copy OK

All tracks accurately ripped

No errors occurred

End of status report

==== Log checksum 819B0D6FDCB6D4BDDDEFBBCCC2AAFD85014BA0C9D8671BA403CE11CD00CC7BA0 ====
REM GENRE SoundtrackREM DATE 2001REM DISCID 0B0A7F15REM COMMENT "ExactAudioCopy v1.0b3"PERFORMER "David Williams"TITLE "Wishmaster 2: Evil Never Dies"FILE "01. David Williams - The Robbery.wav" WAVE TRACK 01 AUDIO TITLE "The Robbery" PERFORMER "David Williams" INDEX 01 00:00:00 TRACK 02 AUDIO TITLE "Transformation" PERFORMER "David Williams" INDEX 00 02:54:37FILE "02. David Williams - Transformation.wav" WAVE INDEX 01 00:00:00 TRACK 03 AUDIO TITLE "Secret Of Djinn" PERFORMER "David Williams" INDEX 00 02:48:61FILE "03. David Williams - Secret Of Djinn.wav" WAVE INDEX 01 00:00:00 TRACK 04 AUDIO TITLE "Morgana" PERFORMER "David Williams" INDEX 00 01:16:67FILE "04. David Williams - Morgana.wav" WAVE INDEX 01 00:00:00 TRACK 05 AUDIO TITLE "Freeze" PERFORMER "David Williams" INDEX 00 01:37:58FILE "05. David Williams - Freeze.wav" WAVE INDEX 01 00:00:00 TRACK 06 AUDIO TITLE "Discoveries" PERFORMER "David Williams" INDEX 00 02:30:04FILE "06. David Williams - Discoveries.wav" WAVE INDEX 01 00:00:00 TRACK 07 AUDIO TITLE "Fulfill the Prophecy" PERFORMER "David Williams" INDEX 00 01:25:27FILE "07. David Williams - Fulfill the Prophecy.wav" WAVE INDEX 01 00:00:00 TRACK 08 AUDIO TITLE "The Shower" PERFORMER "David Williams" INDEX 00 01:53:74FILE "08. David Williams - The Shower.wav" WAVE INDEX 01 00:00:00 TRACK 09 AUDIO TITLE "Demerest" PERFORMER "David Williams" INDEX 00 01:26:12FILE "09. David Williams - Demerest.wav" WAVE INDEX 01 00:00:00 TRACK 10 AUDIO TITLE "Through The Bares" PERFORMER "David Williams" INDEX 00 01:12:44FILE "10. David Williams - Through The Bares.wav" WAVE INDEX 01 00:00:00 TRACK 11 AUDIO TITLE "Wishful Thinking" PERFORMER "David Williams" INDEX 00 01:20:17FILE "11. David Williams - Wishful Thinking.wav" WAVE INDEX 01 00:00:00 TRACK 12 AUDIO TITLE "Kiss" PERFORMER "David Williams" INDEX 00 01:10:59FILE "12. David Williams - Kiss.wav" WAVE INDEX 01 00:00:00 TRACK 13 AUDIO TITLE "Needing Souls" PERFORMER "David Williams" INDEX 00 00:53:35FILE "13. David Williams - Needing Souls.wav" WAVE INDEX 01 00:00:00 TRACK 14 AUDIO TITLE "Maybe I Should" PERFORMER "David Williams" INDEX 00 01:39:60FILE "14. David Williams - Maybe I Should.wav" WAVE INDEX 01 00:00:00 TRACK 15 AUDIO TITLE "Claiming Souls" PERFORMER "David Williams" INDEX 00 00:52:37FILE "15. David Williams - Claiming Souls.wav" WAVE INDEX 01 00:00:00 TRACK 16 AUDIO TITLE "Morgana Shot" PERFORMER "David Williams" INDEX 00 02:02:67FILE "16. David Williams - Morgana Shot.wav" WAVE INDEX 01 00:00:00 TRACK 17 AUDIO TITLE "Inside The Gem" PERFORMER "David Williams" INDEX 00 01:10:58FILE "17. David Williams - Inside The Gem.wav" WAVE INDEX 01 00:00:00 TRACK 18 AUDIO TITLE "Wishmasters Resolve" PERFORMER "David Williams" INDEX 00 04:05:54FILE "18. David Williams - Wishmasters Resolve.wav" WAVE INDEX 01 00:00:00 TRACK 19 AUDIO TITLE "Mayhem" PERFORMER "David Williams" INDEX 00 01:23:30FILE "19. David Williams - Mayhem.wav" WAVE INDEX 01 00:00:00 TRACK 20 AUDIO TITLE "End Of Djinn" PERFORMER "David Williams" INDEX 00 02:30:22FILE "20. David Williams - End Of Djinn.wav" WAVE INDEX 01 00:00:00 TRACK 21 AUDIO TITLE "End Credits" PERFORMER "David Williams" INDEX 00 04:53:20FILE "21. David Williams - End Credits.wav" WAVE INDEX 01 00:00:00


Трекер:  [ 27-Дек-2014 08:00 ]

  

Скачать .torrent

Размер .torrent файла 20 KB


Размер: 230 MB
Хэш (hash) релиза: 2298f6a7eaeddb7c6dfe5fad510c1a14a2701c69

Еще никто не оставлял запись к записи скачать торрент Исполнитель желаний 2: Зло бессмертно Wishmaster 2: Evil Never Dies . Будь первым!

!Обратная связь