Скачать через торрент Нозаки — автор сёдзё-манги Gekkan Shoujo Nozaki-kun бесплатно Аниме Все серии на русском torrent

Если у вас наблюдаются проблемы со скриншотами, переходом по ссылками, скачиванием торрентов - проблемы в блокировщике рекламы AdBlock. #хорошегоДня!


Статистика раздачи
Размер:  15.89 GB   |    Зарегистрирован:  2 года 9 месяцев   |    .torrent скачан:  24 раза   |   
Раздают:  1  
   
Загрузка...
 
Автор Сообщение

Galfimbul

avatar Galfimbul


Нозаки — автор сёдзё-манги / Gekkan Shoujo Nozaki-kun

Страна: Япония
Год выпуска: 2014 г.
Жанр: романтическая комедия
Тип: TV
Продолжительность: 12 эп, 23 мин. серия
Режиссер: Мицуэ Ямадзаки
Студия: Dogakobo

Описание: Сакура Тиё наконец решается признаться в своих чувствах парню из параллельного класса Умэтаро Нодзаки, но все её попытки объясниться приводят лишь к тому, что ей вручают автограф.

Качество: BDRemux
Тип релиза: Без хардсаба
Формат видео: M2TS
Наличие линковки: Нет
Видео: h264, 1920x1080, 38000 kbps, 23.976 fps
Аудио: LPCM, 1536 Kbps, 48000khz, 2ch Язык Японский
Аудио 2: LPCM, 1536 Kbps, 48000khz, 2ch Язык Японский ; Озвучка 2: комментарии сейю (только 1 серия,во 2 серии дорожка повторяет первую)
Субтитры: ass, внешние Язык субтитров русский ;
Редактор: Kasandra [Форум Shojosei]
Переводчик/Перевод песен: sys3x [sjs VK]
Редактор: Tentenkunchan
Редактор/Перевод песен: Xellos Slayer [Eternal HARO]
Перевод песен: Матадор [Ambiente]
Format : BDAVFormat/Info : Blu-ray VideoFile size : 7.27 GiBDuration : 23mn 56sOverall bit rate mode : VariableOverall bit rate : 43.5 MbpsMaximum Overall bit rate : 48.0 Mbps

VideoID : 4113 (0x1011)Menu ID : 1 (0x1)Format : AVCFormat/Info : Advanced Video CodecFormat profile : High@L4.1Format settings, CABAC : YesFormat settings, ReFrames : 2 framesCodec ID : 27Duration : 23mn 56sBit rate mode : VariableBit rate : 38.7 MbpsWidth : 1 920 pixelsHeight : 1 080 pixelsDisplay aspect ratio : 16:9Frame rate : 23.976 fpsColor space : YUVChroma subsampling : 4:2:0Bit depth : 8 bitsScan type : ProgressiveBits/(Pixel*Frame) : 0.778Stream size : 6.47 GiB (89%)

Audio #1ID : 4352 (0x1100)Menu ID : 1 (0x1)Format : PCMFormat settings, Endianness : BigFormat settings, Sign : SignedMuxing mode : Blu-rayCodec ID : 128Duration : 23mn 56sBit rate mode : ConstantBit rate : 1 536 KbpsChannel(s) : 2 channelsChannel positions : Front: L RSampling rate : 48.0 KHzBit depth : 16 bitsStream size : 263 MiB (4%)

Audio #2ID : 4353 (0x1101)Menu ID : 1 (0x1)Format : PCMFormat settings, Endianness : BigFormat settings, Sign : SignedMuxing mode : Blu-rayCodec ID : 128Duration : 23mn 56sBit rate mode : ConstantBit rate : 1 536 KbpsChannel(s) : 2 channelsChannel positions : Front: L RSampling rate : 48.0 KHzBit depth : 16 bitsStream size : 263 MiB (4%)
01. Неверно понятая любовь
02. Знакомьтесь, новая героиня

Спецвыпуск
01.Она с тем парнем дружит или встречается?
[url]...4779393[/url] - BDRemux
[url]...4853356[/url] - BDRemux
[url]...4795549[/url] - BDRemux


Трекер:  [ 14-Дек-2014 17:00 ]

  

Скачать .torrent

Размер .torrent файла 40 KB


Размер: 15.89 GB
Хэш (hash) релиза: 4a82a1c7808f0bb22854f71e6cc447ccd389b6bc
Подписка на обновления:

Еще никто не оставлял запись к записи скачать торрент Нозаки — автор сёдзё-манги Gekkan Shoujo Nozaki-kun . Будь первым!

!Обратная связь