Скачать через торрент музыку Spike & Co.:Do It A capella бесплатно без регистрации torrent

Если у вас наблюдаются проблемы со скриншотами, переходом по ссылками, скачиванием торрентов - проблемы в блокировщике рекламы AdBlock. #хорошегоДня!


Статистика раздачи
Размер:  249 MB   |    Зарегистрирован:  2 года 9 месяцев   |    .torrent скачан:  40 раз   |   
Раздают:  1  
   
Загрузка...
 
Автор Сообщение

Galfimbul

avatar Galfimbul


Spike & Co.:Do It A capella

Название альбома: Original Soundtrack Recording - Spike & Co.:Do It A capella
Жанр: Soundtrack
Год выпуска диска: 1990
Страна-производитель диска: US
Издатель (лейбл): Elektra/WEA
Номер по каталогу: 9 60953-2
Аудиокодек: FLAC (*.flac)
Тип рипа: image+.cue
Битрейт аудио: lossless
Продолжительность: 00:44:48
Источник: собственный рип
Наличие сканов в содержимом раздачи: нет
Треклист:
01. True Image / I Need You
02. The Mint Juleps / Don't Let Your Heart
03. Rockapella / Zombie Jamboree
04. Persuations / Looking for an Echo
05. Ladysmith Black Mambazo / Phansi em Godini ('Down in the Mines')
06. The Mint Juleps / I Want to Live Easy
07. Rockapella and True Image / Under the Boardwalk
08. Persuasions / Up on the Roof
09. The Mint Juleps / Higher and Higher
10. Take Six / Get Away Jordan
11. Ladysmith Black Mambazo / N'Kosi Sikeleli Afrika ('God Bless Africa')
12. Persuasions / Pass on the Love
13. Ladysmith Black Mambazo and Mint Juleps / Lion Sleeps Tonight
Exact Audio Copy V1.0 beta 3 from 29. August 2011

EAC extraction logfile from 22. November 2014, 22:05

Various / Do It A Cappella

Used drive : hp DVD RW AD-7586H Adapter: 0 ID: 1

Read mode : SecureUtilize accurate stream : YesDefeat audio cache : YesMake use of C2 pointers : No

Read offset correction : 6Overread into Lead-In and Lead-Out : NoFill up missing offset samples with silence : YesDelete leading and trailing silent blocks : NoNull samples used in CRC calculations : YesUsed interface : Installed external ASPI interface

Used output format : User Defined EncoderSelected bitrate : 768 kBit/sQuality : HighAdd ID3 tag : NoCommand line compressor : C:\Program Files (x86)\Exact Audio Copy\FLAC\FLAC.EXEAdditional command line options : -6 -V -T "ARTIST=%artist%" -T "TITLE=%title%" -T "ALBUM=%albumtitle%" -T "DATE=%year%" -T "TRACKNUMBER=%tracknr%" -T "GENRE=%genre%" -T "COMMENT=%comment%" -T "BAND=%albuminterpret%" -T "ALBUMARTIST=%albuminterpret%" -T "COMPOSER=%composer%" %haslyrics%--tag-from-file=LYRICS="%lyricsfile%"%haslyrics% -T "DISCNUMBER=%cdnumber%" -T "TOTALDISCS=%totalcds%" -T "TOTALTRACKS=%numtracks%" %hascover%--picture="%coverfile%"%hascover% %source% -o %dest%

TOC of the extracted CD

Track | Start | Length | Start sector | End sector --------------------------------------------------------- 1 | 0:00.32 | 1:57.63 | 32 | 8869 2 | 1:58.20 | 2:37.45 | 8870 | 20689 3 | 4:35.65 | 2:58.70 | 20690 | 34109 4 | 7:34.60 | 4:23.05 | 34110 | 53839 5 | 11:57.65 | 5:17.32 | 53840 | 77646 6 | 17:15.22 | 2:48.63 | 77647 | 90309 7 | 20:04.10 | 3:12.12 | 90310 | 104721 8 | 23:16.22 | 3:00.55 | 104722 | 118276 9 | 26:17.02 | 3:38.63 | 118277 | 134689 10 | 29:55.65 | 4:24.00 | 134690 | 154489 11 | 34:19.65 | 3:01.15 | 154490 | 168079 12 | 37:21.05 | 2:50.55 | 168080 | 180884 13 | 40:11.60 | 4:37.00 | 180885 | 201659

Range status and errors

Selected range

Filename C:\Users\HP\Music\5.UKRAINIAN MUSIC\Various - Do It A Cappella.wav

Peak level 100.0 % Extraction speed 1.7 X Range quality 100.0 % Test CRC 8A337BC5 Copy CRC 8A337BC5 Copy OK

No errors occurred

AccurateRip summary

Track 1 accurately ripped (confidence 13) [C8CE3F9A] (AR v2)Track 2 accurately ripped (confidence 14) [05E785F3] (AR v2)Track 3 accurately ripped (confidence 14) [9968F323] (AR v2)Track 4 accurately ripped (confidence 14) [EACB40D7] (AR v2)Track 5 accurately ripped (confidence 14) [489526C3] (AR v2)Track 6 accurately ripped (confidence 14) [8616295F] (AR v2)Track 7 accurately ripped (confidence 14) [3B24B699] (AR v2)Track 8 accurately ripped (confidence 14) [876DA0E5] (AR v2)Track 9 accurately ripped (confidence 13) [9E11FF7D] (AR v2)Track 10 accurately ripped (confidence 14) [8F2399B0] (AR v2)Track 11 accurately ripped (confidence 14) [BC9EBDC3] (AR v2)Track 12 accurately ripped (confidence 14) [BAE95456] (AR v2)Track 13 accurately ripped (confidence 14) [DF8F3EBD] (AR v2)

All tracks accurately ripped

End of status report

==== Log checksum D13876BC0C5EAFDA6853CCACE30A28C316D2B9118D70610D01A801380C450E9F ====
Доп. информация: Саундтрэк к ТВ программе/док.фильму снятому Спайком Ли.
The PBS special which showcases a cappella musical acts including Rocappella, the Mint Juleps and Ladysmith Black Mambazo. Hosted by Spike Lee and Debbie Allen.Music in styles of a capella,vocal,gospel,rhythm & blues,soul,pop,funk


Трекер:  [ 11-Дек-2014 23:30 ]

  

Скачать .torrent

Размер .torrent файла 20 KB


Размер: 249 MB
Хэш (hash) релиза: fa9fc1c51e769ebeb19ff6c73ed7fee39c69c13a

Еще никто не оставлял запись к записи скачать торрент Spike & Co.:Do It A capella . Будь первым!

!Обратная связь