Скачать через торрент музыку Вокруг света, вокруг неба Tours du Monde, Tours du Ciel бесплатно без регистрации torrent

Если у вас наблюдаются проблемы со скриншотами, переходом по ссылками, скачиванием торрентов - проблемы в блокировщике рекламы AdBlock. #хорошегоДня!


Статистика раздачи
Размер:  129 MB   |    Зарегистрирован:  2 года 9 месяцев   |    .torrent скачан:  24 раза   |   
Раздают:  1  
   
Загрузка...
 
Автор Сообщение

Galfimbul

avatar Galfimbul



Вокруг света, вокруг неба / Tours du Monde, Tours du Ciel
Composed and Conducted by Georges Delerue

Жанр: Score | Дата выпуска: 1990
Издатель (лейбл): Berthemont | Номер по каталогу: 803 933-1
Аудиокодек: FLAC | Тип рипа: image+.cue | Битрейт аудио: lossless
Общая продолжительность: 23:08
Источник: Рип оригинального диска из личной коллекции
01. Stellaire 1 [6:04]
02. Stellaire 2 [7:42]
03. Stellaire 3 [2:10]
04. Stellaire 4 [3:08]
05. Générique [1:40]
06. Saturne [0:09]
07. Jupiter [0:09]
08. Terre [0:10]
09. Mars [0:10]
10. Vénus [0:12]
11. Mercure [0:19]
Exact Audio Copy V1.0 beta 3 from 29. August 2011

EAC extraction logfile from 27. November 2014, 9:59

Georges Delerue / Tours du Monde, Tours du Ciel

Used drive : TSSTcorpCDDVDW TS-L633C Adapter: 2 ID: 0

Read mode : SecureUtilize accurate stream : YesDefeat audio cache : YesMake use of C2 pointers : No

Read offset correction : 6Overread into Lead-In and Lead-Out : NoFill up missing offset samples with silence : YesDelete leading and trailing silent blocks : NoNull samples used in CRC calculations : YesUsed interface : Native Win32 interface for Win NT & 2000

Used output format : Internal WAV RoutinesSample format : 44.100 Hz; 16 Bit; Stereo

TOC of the extracted CD

Track | Start | Length | Start sector | End sector --------------------------------------------------------- 1 | 0:00.33 | 6:13.25 | 33 | 28032 2 | 6:13.58 | 7:48.42 | 28033 | 63174 3 | 14:02.25 | 2:16.33 | 63175 | 73407 4 | 16:18.58 | 3:15.72 | 73408 | 88104 5 | 19:34.55 | 1:45.58 | 88105 | 96037 6 | 21:20.38 | 0:16.67 | 96038 | 97304 7 | 21:37.30 | 0:16.00 | 97305 | 98504 8 | 21:53.30 | 0:17.03 | 98505 | 99782 9 | 22:10.33 | 0:20.67 | 99783 | 101349 10 | 22:31.25 | 0:19.18 | 101350 | 102792 11 | 22:50.43 | 0:23.55 | 102793 | 104572

Range status and errors

Selected range

Filename H:\Georges Delerue - CD Collection [by italia57]\Georges Delerue (1990) Tours du Monde - Tours du Ciel\Georges Delerue - Tours du Monde - Tours du Ciel (Berthemont 803 933 1).wav

Peak level 100.0 % Extraction speed 3.0 X Range quality 100.0 % Test CRC 5BD8BA28 Copy CRC 5BD8BA28 Copy OK

No errors occurred

AccurateRip summary

Track 1 accurately ripped (confidence 3) [CC553EA9] (AR v2)Track 2 accurately ripped (confidence 3) [E8AE8836] (AR v2)Track 3 accurately ripped (confidence 3) [F6E7CA92] (AR v2)Track 4 accurately ripped (confidence 3) [6C1DB1E6] (AR v2)Track 5 accurately ripped (confidence 3) [6FF77ABA] (AR v2)Track 6 accurately ripped (confidence 3) [F79099CC] (AR v2)Track 7 accurately ripped (confidence 3) [36314F3C] (AR v2)Track 8 accurately ripped (confidence 3) [065F6CBA] (AR v2)Track 9 accurately ripped (confidence 3) [99D3062C] (AR v2)Track 10 accurately ripped (confidence 3) [ED73721D] (AR v2)Track 11 accurately ripped (confidence 3) [A940E71E] (AR v2)

All tracks accurately ripped

End of status report

---- CUETools DB Plugin V2.1.4

[CTDB TOCID: QtZKPDUVPWQ7l59agE6e4e1RX6k-] disk not present in databaseSubmit result: QtZKPDUVPWQ7l59agE6e4e1RX6k- has been uploaded

==== Log checksum 34646E55A6E278220167E035AB38D3BAB901C755875426767068449A65723E84 ====
REM GENRE SoundtrackREM DATE 1990REM DISCID 8F05720BREM COMMENT "ExactAudioCopy v1.0b3"PERFORMER "Georges Delerue"TITLE "Tours du Monde, Tours du Ciel"FILE "Georges Delerue - Tours du Monde - Tours du Ciel (Berthemont 803 933 1).flac" WAVE TRACK 01 AUDIO TITLE "Stellaire 1" PERFORMER "Georges Delerue" INDEX 00 00:00:00 INDEX 01 00:00:33 TRACK 02 AUDIO TITLE "Stellaire 2" PERFORMER "Georges Delerue" INDEX 00 06:09:05 INDEX 01 06:13:58 TRACK 03 AUDIO TITLE "Stellaire 3" PERFORMER "Georges Delerue" INDEX 00 13:58:68 INDEX 01 14:02:25 TRACK 04 AUDIO TITLE "Stellaire 4" PERFORMER "Georges Delerue" INDEX 00 16:16:33 INDEX 01 16:18:58 TRACK 05 AUDIO TITLE "Generique" PERFORMER "Georges Delerue" INDEX 00 19:31:55 INDEX 01 19:34:55 TRACK 06 AUDIO TITLE "Saturne" PERFORMER "Georges Delerue" INDEX 00 21:19:40 INDEX 01 21:20:38 TRACK 07 AUDIO TITLE "Jupiter" PERFORMER "Georges Delerue" INDEX 00 21:34:73 INDEX 01 21:37:30 TRACK 08 AUDIO TITLE "Terre" PERFORMER "Georges Delerue" INDEX 00 21:51:30 INDEX 01 21:53:30 TRACK 09 AUDIO TITLE "Mars" PERFORMER "Georges Delerue" INDEX 00 22:08:68 INDEX 01 22:10:33 TRACK 10 AUDIO TITLE "Venus" PERFORMER "Georges Delerue" INDEX 00 22:28:63 INDEX 01 22:31:25 TRACK 11 AUDIO TITLE "Mercure" PERFORMER "Georges Delerue" INDEX 00 22:48:08 INDEX 01 22:50:43


Трекер:  [ 08-Дек-2014 16:00 ]

  

Скачать .torrent

Размер .torrent файла 11 KB


Размер: 129 MB
Хэш (hash) релиза: 242553cd003fad691397429ac539acc35424d40d

Еще никто не оставлял запись к записи скачать торрент Вокруг света, вокруг неба Tours du Monde, Tours du Ciel . Будь первым!

!Обратная связь