Скачать через торрент Детройт, город металла Detroit Metal City бесплатно Аниме Все серии на русском torrent

Если у вас наблюдаются проблемы со скриншотами, переходом по ссылками, скачиванием торрентов - проблемы в блокировщике рекламы AdBlock. #хорошегоДня!


Статистика раздачи
Размер:  28.95 GB   |    Зарегистрирован:  2 года 9 месяцев   |    .torrent скачан:  35 раз   |   
Раздают:  1  
   
Загрузка...
 
Автор Сообщение

Galfimbul

avatar Galfimbul


Страна: Япония
Год выпуска: 2008 г.
Жанр: комедия, музыкальный
Тип: OVA
Продолжительность: 12 эп. по 15 мин.
Режиссер: Нагахама Хироси
Студия: Studio 4°C
Перевод:
<ol class="post-ul">
русские субтитры от Blaise
</ol>
Озвучка:
<ol class="post-ul">
одноголосая (муж.) от Scream
двухголосая (жен./муж.) от Rezan & Linokk
</ol>
Описание: Сойти Нэгиси приехал в Токио, чтобы сочинять и играть музыку. Он любит нежный «поп», мягкие гитарные наигрыши, тексты про первую любовь и малиновый привкус поцелуя. Но удача подкараулила Нэгиси-куна совсем на другом поприще – он стал солистом металлической группы «Детройт - город металла», жутким Краузером, автором прославляющих насилие хитов. Согласно официальной легенде, Краузер еще в детстве убил родителей, а потом сбежал из колонии, чтобы основать «ДГМ». Каково целомудренному Нэгисе-куну, любящему сыну и убежденному пацифисту, воплощать в себе идола агрессивных анархистов?.. но успех есть успех. И пока скромняге-Нэгисе хочется славы, Иоганн Краузер будет зубами грызть струны, призывать к погромам и обещать перетрахать всех фанаток.
© Анастасия Розанова, World Art
Качество: BDRemux
Тип релиза: Без хардсаба
Формат видео: MKV
Наличие линковки: Нет
Видео: AVC, 8bit, 1920x1080, 19829 kbps, 23,976 fps
Аудио RUS#1 (int.): AC3, 192 kbps, 48000 Hz, 2ch - Scream
Аудио RUS#1 (int.): AC3, 192 kbps, 48000 Hz, 2ch - Rezan & Linokk
Аудио JAP: DTS-HD MA, 2188 kbps, 48000 Hz, 2ch
Формат : Matroska
Версия формата : Version 4 / Version 2
Размер файла : 2,42 Гбайт
Продолжительность : 15 м.
Режим общего битрейта : Переменный
Общий поток : 22,1 Мбит/сек
Дата кодирования : UTC 2014-12-07 08:33:07
Программа кодирования : mkvmerge v7.1.0 ('Good Love') 32bit built on Jul 27 2014 12:59:18
Библиотека кодирования : libebml v1.3.0 + libmatroska v1.4.1

Видео
Идентификатор : 1
Формат : AVC
Формат/Информация : Advanced Video Codec
Профиль формата : High@L4.1
Параметр CABAC формата : Да
Параметр ReFrames формата : 4 кадра
Параметр GOP формата : M=3, N=12
Идентификатор кодека : V_MPEG4/ISO/AVC
Продолжительность : 15 м.
Вид битрейта : Переменный
Максимальный битрейт : 35,0 Мбит/сек
Ширина : 1920 пикселей
Высота : 1080 пикселей
Соотношение сторон : 16:9
Режим частоты кадров : Постоянный
Частота кадров : 23,976 кадра/сек
Цветовое пространство : YUV
Субдискретизация насыщенности : 4:2:0
Битовая глубина : 8 бит
Тип развёртки : Прогрессивная
Язык : Japanese
Default : Да
Forced : Нет

Аудио #1
Идентификатор : 2
Формат : AC-3
Формат/Информация : Audio Coding 3
Расширение режима : CM (complete main)
Параметр Endianness формата : Big
Идентификатор кодека : A_AC3
Продолжительность : 15 м.
Вид битрейта : Постоянный
Битрейт : 192 Кбит/сек
Каналы : 2 канала
Расположение каналов : Front: L R
Частота : 48,0 КГц
Битовая глубина : 16 бит
Метод сжатия : С потерями
Размер потока : 21,5 Мбайт (1%)
Заголовок : Scream
Язык : Russian
Default : Да
Forced : Нет

Аудио #2
Идентификатор : 3
Формат : AC-3
Формат/Информация : Audio Coding 3
Расширение режима : CM (complete main)
Параметр Endianness формата : Big
Идентификатор кодека : A_AC3
Продолжительность : 15 м.
Вид битрейта : Постоянный
Битрейт : 192 Кбит/сек
Каналы : 2 канала
Расположение каналов : Front: L R
Частота : 48,0 КГц
Битовая глубина : 16 бит
Метод сжатия : С потерями
Размер потока : 21,5 Мбайт (1%)
Заголовок : Rezan & Linokk
Язык : Russian
Default : Нет
Forced : Нет

Аудио #3
Идентификатор : 4
Формат : DTS
Формат/Информация : Digital Theater Systems
Профиль формата : MA / Core
Режим : 16
Параметр Endianness формата : Big
Идентификатор кодека : A_DTS
Продолжительность : 15 м.
Вид битрейта : Переменный
Битрейт : Неизвестно / 1509 Кбит/сек
Каналы : 2 канала
Расположение каналов : Front: L R
Частота : 48,0 КГц
Битовая глубина : 24 бит
Метод сжатия : Без потерь / Lossy
Язык : Japanese
Default : Нет
Forced : Нет

Текст
Идентификатор : 5
Формат : ASS
Идентификатор кодека : S_TEXT/ASS
Идентификатор кодека/Информация : Advanced Sub Station Alpha
Метод сжатия : Без потерь
Язык : Russian
Default : Нет
Forced : Нет
01. PV / Sick Murderer
02. Real Legend / Satan
03. Pig / Drug
04. Frustration / Good Song
05. Masochist / Family
06. Punk.1 / Punk.2
07. Tower / Confession
08. Promise / Alternation
09. Cinema.1 / Cinema.2
10. Fake / Detroit-Moe-City
11. Hip Hop.1 / Hip Hop.2
12. Emperor.1 / Emperor.2
[url]...2752664[/url]
[url]...4145569[/url]
[url]...4882605[/url]
<ol class="post-ul">
BDRemux
</ol>


Трекер:  [ 07-Дек-2014 14:00 ]

  

Скачать .torrent

Размер .torrent файла 146 KB


Размер: 28.95 GB
Хэш (hash) релиза: 2b1e13b493b7ec8014125ed5d2efe9f396633fa3
Подписка на обновления:

Торренты, похожие на Детройт, город металла Detroit Metal City скачать торрент

Форум Название Автор Размер S L Добавлен
Аниме | Rips ·· Детройт, Город Металла / Detroit Metal City / DMC (Нагахама Хироси) [OVA] [12 из 12] [Без хардсаба] [RUS(int), JAP+SUB] [2008, комедия, музыкальный, BDRip] [HWP] Galfimbul 17963829631.67 GB 0 0 1494498512

13:28

11-Май-17

Аниме | HD Rips ·· Детройт, Город Металла / Detroit Metal City / DMC [OVA] [1-2 из 12] [Без хардсаба] [RUS(ext), JAP, SUB] [2008 г., комедия, музыкальный, BDRip] [1080p] Galfimbul 34940486343.25 GB 0 0 1461361072

00:37

23-Апр-16

Аниме | HD Rips ·· Детройт, город металла / Detroit Metal City (Нагахама Хироси) [OVA] [12 из 12] [без хардсаба] [RUS(ext), JAP+SUB] [2008 г., комедия, музыкальный, BDRip] [720p] Galfimbul 48403293404.51 GB 0 0 1417550812

23:06

2-Дек-14

Аниме | Rips ·· Детройт, город металла / Detroit Metal City (Нагахама Хироси) [OVA] [12 из 12] [без хардсаба] [RUS(ext), JAP+SUB] [2008 г., комедия, музыкальный, BDRip] [720p] Galfimbul 46279149294.31 GB 0 0 1417550798

23:06

2-Дек-14

Аниме | HD Rips ·· Детройт, город металла / Detroit Metal City [OVA] [01-05 из 12] [Без хардсаба] [RUS(int), JAP] [2008 г., комедия, приключения, музыкальный, HDTVRip] [720p] Galfimbul 1036752731989 MB 0 0 1344198540

23:29

5-Авг-12

Манга ·· Kiminori Wakasugi / Вакасуги Киминори - Детройт, город металла / Detroit Metal City / DMC [manga][главы 0-107 (113) | спешалы 1-5][2006 г., комедия, сэйнэн, повседневность][incomplete] Felm 840566066802 MB 0 0 1313697772

23:02

18-Авг-11

Аниме | Rips ·· Детройт Город Металла / Detroit Metal City (OVA)(1-12 из 12)[RUS (int); JAP+SUB][2008 г., комедия, музыкальный, DVDRip][Любительская] Nomak 27983061962.61 GB 0 0 1290021447

22:17

17-Ноя-10

Аниме | Rips ·· Детройт, город металла / Detroit Metal City [OVA] [1-12 из 12] [RUS(int),JAP+SUB] [2008 г., Комедия, Музыкальный, HDTVRip] [Любительская] Polarnik 27364628392.55 GB 0 0 1290021211

22:13

17-Ноя-10

Аниме | HD Rips ·· Детройт, город металла / Detroit Metal City [OVA] [1-12 из 12] [JAP+SUB] [2008 г., комедия, музыкальный, HDTVRip] [720p] [Субтитры] Bot 22369336122.08 GB 0 0 1286481185

22:53

7-Окт-10

Аниме | HD Rips ·· Детройт, город металла / Detroit Metal City [OVA] [1-12 из 12] [RUS(ext),JAP+SUB] [2008 г., комедия, музыкальный, HDTVRip] [1080p] [Любительская] Bot 60725845755.66 GB 0 0 1286481080

22:51

7-Окт-10

Аниме | HD Rips ·· Детройт, Город Металла (ОВА) / Detroit Metal City / DMC [OVA] [12 из 12] [JAP, SUB] & [1-3 из 12] [RUS(ext)] [Без хардсаба] [2008 г., комедия, музыкальный, BDRip] [1080p] Galfimbul 2057664385919.16 GB 0 0 1469512929

09:02

26-Июл-16

Еще никто не оставлял запись к записи скачать торрент Детройт, город металла Detroit Metal City . Будь первым!

!Обратная связь