Скачать через торрент музыку Хоббит: Битва Пяти Воинств The Hobbit: The Battle of the Five Armies бесплатно без регистрации torrent

Если у вас наблюдаются проблемы со скриншотами, переходом по ссылками, скачиванием торрентов - проблемы в блокировщике рекламы AdBlock. #хорошегоДня!


Статистика раздачи
Размер:  540 MB   |    Зарегистрирован:  2 года 9 месяцев   |    .torrent скачан:  48 раз   |   
Раздают:  1  
   
Загрузка...
 
Автор Сообщение

Galfimbul

avatar Galfimbul


Хоббит: Битва Пяти Воинств / The Hobbit: The Battle of the Five Armies [Special Edition]


Жанр: Score || Композитор: Howard Shore || Год выпуска диска: 2014 || Страна-производитель диска: США || Аудио кодек: FLAC (*.flac) || Тип рипа: tracks+.cue || Битрейт аудио: lossless || Продолжительность: 01:48:44 || Источник: What.cd (Frankenhooker) || Наличие сканов в содержимом раздачи: нет
Треклист:Disc 101. Fire And Water [05:57]
02. Shores of the Long Lake [04:01]
03. Beyond Sorrow and Grief (deluxe extended) [04:12]
04. Guardians of the Three (deluxe extended) [05:48]
05. The Ruins of Dale [03:39]
06. The Gathering of the Clouds (deluxe extended) [05:52]
07. Mithril [03:08]
08. Bred for War [03:20]
09. A Thief in the Night [04:14]
10. The Clouds Burst [04:13]
11. Battle for the Mountain [04:39]Disc 201. The Darkest Hour [05:33]
02. Sons of Durin [04:24]
03. The Fallen [04:56]
04. Ravenhill [05:48]
05. To The Death (deluxe extended) [07:23]
06. Courage and Wisdom [05:10]
07. The Return Journey [04:18]
08. There and Back Again [04:20]
09. The Last Goodbye (Billy Boyd) [04:07]
10. Ironfoot (deluxe extended [06:11]
11. Dragon/Sickness (deluxe Bonus track) [03:52]
12. Thrain (deluxe Bonus track) [03:25]
Exact Audio Copy V1.0 beta 3 from 29. August 2011

EAC extraction logfile from 6. December 2014, 12:59

Howard Shore / The Battle Of The Five Armies

Used drive : PIONEER BD-ROM BDCTD01RS Adapter: 0 ID: 1

Read mode : SecureUtilize accurate stream : YesDefeat audio cache : YesMake use of C2 pointers : No

Read offset correction : 667Overread into Lead-In and Lead-Out : NoFill up missing offset samples with silence : YesDelete leading and trailing silent blocks : NoNull samples used in CRC calculations : YesUsed interface : Native Win32 interface for Win NT & 2000Gap handling : Appended to previous track

Used output format : User Defined EncoderSelected bitrate : 1024 kBit/sQuality : HighAdd ID3 tag : NoCommand line compressor : C:\Program Files\Exact Audio Copy\Flac\flac.exeAdditional command line options : -8 -V -T "ARTIST=%artist%" -T "TITLE=%title%" -T "ALBUM=%albumtitle%" -T "DATE=%year%" -T "TRACKNUMBER=%tracknr%" -T "GENRE=%genre%" -T "PERFORMER=%albuminterpret%" -T "COMPOSER=%composer%" %haslyrics%--tag-from-file=LYRICS="%lyricsfile%"%haslyrics% -T "ALBUMARTIST=%albumartist%" -T "DISCNUMBER=%cdnumber%" -T "TOTALDISCS=%totalcds%" -T "TOTALTRACKS=%numtracks%" -T "COMMENT=%comment%" %source% -o %dest%

TOC of the extracted CD

Track | Start | Length | Start sector | End sector --------------------------------------------------------- 1 | 0:00.00 | 5:58.52 | 0 | 26901 2 | 5:58.52 | 4:01.12 | 26902 | 44988 3 | 9:59.64 | 4:12.01 | 44989 | 63889 4 | 14:11.65 | 5:48.38 | 63890 | 90027 5 | 20:00.28 | 3:39.47 | 90028 | 106499 6 | 23:40.00 | 5:52.44 | 106500 | 132943 7 | 29:32.44 | 3:08.30 | 132944 | 147073 8 | 32:40.74 | 3:20.26 | 147074 | 162099 9 | 36:01.25 | 4:14.28 | 162100 | 181177 10 | 40:15.53 | 4:13.21 | 181178 | 200173 11 | 44:28.74 | 4:40.72 | 200174 | 221245

Track 1

Filename R:\Misc\What\Howard Shore - The Hobbit - The Battle Of The Five Armies [FLAC]\CD1\01 - Track01.wav

Pre-gap length 0:00:02.00

Peak level 98.1 % Extraction speed 3.1 X Track quality 100.0 % Test CRC BD97A471 Copy CRC BD97A471 Track not present in AccurateRip database Copy OK

Track 2

Filename R:\Misc\What\Howard Shore - The Hobbit - The Battle Of The Five Armies [FLAC]\CD1\02 - Track02.wav

Pre-gap length 0:00:01.42

Peak level 97.4 % Extraction speed 3.3 X Track quality 100.0 % Test CRC 734A58A5 Copy CRC 734A58A5 Track not present in AccurateRip database Copy OK

Track 3

Filename R:\Misc\What\Howard Shore - The Hobbit - The Battle Of The Five Armies [FLAC]\CD1\03 - Track03.wav

Pre-gap length 0:00:01.25

Peak level 95.4 % Extraction speed 3.2 X Track quality 99.9 % Test CRC 8D4D853A Copy CRC 8D4D853A Track not present in AccurateRip database Copy OK

Track 4

Filename R:\Misc\What\Howard Shore - The Hobbit - The Battle Of The Five Armies [FLAC]\CD1\04 - Track04.wav

Pre-gap length 0:00:00.89

Peak level 98.0 % Extraction speed 4.1 X Track quality 100.0 % Test CRC 57F5AEA3 Copy CRC 57F5AEA3 Track not present in AccurateRip database Copy OK

Track 5

Filename R:\Misc\What\Howard Shore - The Hobbit - The Battle Of The Five Armies [FLAC]\CD1\05 - Track05.wav

Pre-gap length 0:00:01.65

Peak level 97.4 % Extraction speed 4.0 X Track quality 100.0 % Test CRC 06DF7DFD Copy CRC 06DF7DFD Track not present in AccurateRip database Copy OK

Track 6

Filename R:\Misc\What\Howard Shore - The Hobbit - The Battle Of The Five Armies [FLAC]\CD1\06 - Track06.wav

Pre-gap length 0:00:00.48

Peak level 97.4 % Extraction speed 4.2 X Track quality 99.9 % Test CRC EB9DE413 Copy CRC EB9DE413 Track not present in AccurateRip database Copy OK

Track 7

Filename R:\Misc\What\Howard Shore - The Hobbit - The Battle Of The Five Armies [FLAC]\CD1\07 - Track07.wav

Pre-gap length 0:00:01.65

Peak level 97.5 % Extraction speed 4.4 X Track quality 100.0 % Test CRC 9371C2E4 Copy CRC 9371C2E4 Track not present in AccurateRip database Copy OK

Track 8

Filename R:\Misc\What\Howard Shore - The Hobbit - The Battle Of The Five Armies [FLAC]\CD1\08 - Track08.wav

Pre-gap length 0:00:01.54

Peak level 98.8 % Extraction speed 4.6 X Track quality 100.0 % Test CRC CE1B1096 Copy CRC CE1B1096 Track not present in AccurateRip database Copy OK

Track 9

Filename R:\Misc\What\Howard Shore - The Hobbit - The Battle Of The Five Armies [FLAC]\CD1\09 - Track09.wav

Pre-gap length 0:00:02.09

Peak level 97.4 % Extraction speed 4.9 X Track quality 100.0 % Test CRC 91DCC41E Copy CRC 91DCC41E Track not present in AccurateRip database Copy OK

Track 10

Filename R:\Misc\What\Howard Shore - The Hobbit - The Battle Of The Five Armies [FLAC]\CD1\10 - Track10.wav

Pre-gap length 0:00:01.78

Peak level 97.5 % Extraction speed 4.5 X Track quality 99.9 % Test CRC 06B1AA24 Copy CRC 06B1AA24 Track not present in AccurateRip database Copy OK

Track 11

Filename R:\Misc\What\Howard Shore - The Hobbit - The Battle Of The Five Armies [FLAC]\CD1\11 - Track11.wav

Pre-gap length 0:00:01.00

Peak level 98.3 % Extraction speed 5.3 X Track quality 100.0 % Test CRC E5EC6D33 Copy CRC E5EC6D33 Track not present in AccurateRip database Copy OK

None of the tracks are present in the AccurateRip database

No errors occurred

End of status report

==== Log checksum 5D57915521FA04E149FCDE9F42A0DDF1AFA2F712A8C68E6593C94B1D5E6A9DC2 ====
REM GENRE SoundtrackREM DATE 2014REM DISCID 7E0B850BREM COMMENT "ExactAudioCopy v1.0b3"CATALOG 0602547104953PERFORMER "Howard Shore"TITLE "The Battle Of The Five Armies"FILE "01 - Track01.wav" WAVE TRACK 01 AUDIO TITLE "Track01" PERFORMER "Howard Shore" ISRC USNLR1400802 INDEX 01 00:00:00 TRACK 02 AUDIO TITLE "Track02" PERFORMER "Howard Shore" ISRC USNLR1400803 INDEX 00 05:57:20FILE "02 - Track02.wav" WAVE INDEX 01 00:00:00 TRACK 03 AUDIO TITLE "Track03" PERFORMER "Howard Shore" ISRC USNLR1400823 INDEX 00 03:59:68FILE "03 - Track03.wav" WAVE INDEX 01 00:00:00 TRACK 04 AUDIO TITLE "Track04" PERFORMER "Howard Shore" ISRC USNLR1400835 INDEX 00 04:11:09FILE "04 - Track04.wav" WAVE INDEX 01 00:00:00 TRACK 05 AUDIO TITLE "Track05" PERFORMER "Howard Shore" ISRC USNLR1400806 INDEX 00 05:46:64FILE "05 - Track05.wav" WAVE INDEX 01 00:00:00 TRACK 06 AUDIO TITLE "Track06" PERFORMER "Howard Shore" ISRC USNLR1400824 INDEX 00 03:39:11FILE "06 - Track06.wav" WAVE INDEX 01 00:00:00 TRACK 07 AUDIO TITLE "Track07" PERFORMER "Howard Shore" ISRC USNLR1400808 INDEX 00 05:50:70FILE "07 - Track07.wav" WAVE INDEX 01 00:00:00 TRACK 08 AUDIO TITLE "Track08" PERFORMER "Howard Shore" ISRC USNLR1400809 INDEX 00 03:06:64FILE "08 - Track08.wav" WAVE INDEX 01 00:00:00 TRACK 09 AUDIO TITLE "Track09" PERFORMER "Howard Shore" ISRC USNLR1400810 INDEX 00 03:18:19FILE "09 - Track09.wav" WAVE INDEX 01 00:00:00 TRACK 10 AUDIO TITLE "Track10" PERFORMER "Howard Shore" ISRC USNLR1400811 INDEX 00 04:12:44FILE "10 - Track10.wav" WAVE INDEX 01 00:00:00 TRACK 11 AUDIO TITLE "Track11" PERFORMER "Howard Shore" ISRC USNLR1400812 INDEX 00 04:12:21FILE "11 - Track11.wav" WAVE INDEX 01 00:00:00
Exact Audio Copy V1.0 beta 3 from 29. August 2011

EAC extraction logfile from 6. December 2014, 13:43

Howard Shore / The Hobbit - The Battle Of The Five Armies

Used drive : PIONEER BD-ROM BDCTD01RS Adapter: 0 ID: 1

Read mode : SecureUtilize accurate stream : YesDefeat audio cache : YesMake use of C2 pointers : No

Read offset correction : 667Overread into Lead-In and Lead-Out : NoFill up missing offset samples with silence : YesDelete leading and trailing silent blocks : NoNull samples used in CRC calculations : YesUsed interface : Native Win32 interface for Win NT & 2000Gap handling : Appended to previous track

Used output format : User Defined EncoderSelected bitrate : 1024 kBit/sQuality : HighAdd ID3 tag : NoCommand line compressor : C:\Program Files\Exact Audio Copy\Flac\flac.exeAdditional command line options : -8 -V -T "ARTIST=%artist%" -T "TITLE=%title%" -T "ALBUM=%albumtitle%" -T "DATE=%year%" -T "TRACKNUMBER=%tracknr%" -T "GENRE=%genre%" -T "PERFORMER=%albuminterpret%" -T "COMPOSER=%composer%" %haslyrics%--tag-from-file=LYRICS="%lyricsfile%"%haslyrics% -T "ALBUMARTIST=%albumartist%" -T "DISCNUMBER=%cdnumber%" -T "TOTALDISCS=%totalcds%" -T "TOTALTRACKS=%numtracks%" -T "COMMENT=%comment%" %source% -o %dest%

TOC of the extracted CD

Track | Start | Length | Start sector | End sector --------------------------------------------------------- 1 | 0:00.00 | 5:34.03 | 0 | 25052 2 | 5:34.03 | 4:24.62 | 25053 | 44914 3 | 9:58.65 | 4:56.39 | 44915 | 67153 4 | 14:55.29 | 5:48.18 | 67154 | 93271 5 | 20:43.47 | 7:22.72 | 93272 | 126493 6 | 28:06.44 | 5:10.12 | 126494 | 149755 7 | 33:16.56 | 4:18.11 | 149756 | 169116 8 | 37:34.67 | 4:20.16 | 169117 | 188632 9 | 41:55.08 | 4:07.27 | 188633 | 207184 10 | 46:02.35 | 6:11.43 | 207185 | 235052 11 | 52:14.03 | 3:52.68 | 235053 | 252520 12 | 56:06.71 | 3:27.35 | 252521 | 268080

Track 1

Filename R:\Misc\What\Howard Shore - The Hobbit - The Battle Of The Five Armies [FLAC]\CD2\01 - Track01.wav

Pre-gap length 0:00:02.00

Peak level 97.8 % Extraction speed 3.0 X Track quality 100.0 % Test CRC 98577427 Copy CRC 98577427 Track not present in AccurateRip database Copy OK

Track 2

Filename R:\Misc\What\Howard Shore - The Hobbit - The Battle Of The Five Armies [FLAC]\CD2\02 - Track02.wav

Pre-gap length 0:00:01.01

Peak level 97.9 % Extraction speed 3.4 X Track quality 100.0 % Test CRC CB8CAED4 Copy CRC CB8CAED4 Track not present in AccurateRip database Copy OK

Track 3

Filename R:\Misc\What\Howard Shore - The Hobbit - The Battle Of The Five Armies [FLAC]\CD2\03 - Track03.wav

Pre-gap length 0:00:00.70

Peak level 97.4 % Extraction speed 3.7 X Track quality 100.0 % Test CRC 37C6AF68 Copy CRC 37C6AF68 Track not present in AccurateRip database Copy OK

Track 4

Filename R:\Misc\What\Howard Shore - The Hobbit - The Battle Of The Five Armies [FLAC]\CD2\04 - Track04.wav

Pre-gap length 0:00:01.29

Peak level 97.9 % Extraction speed 3.7 X Track quality 99.9 % Test CRC 993D90B1 Copy CRC 993D90B1 Track not present in AccurateRip database Copy OK

Track 5

Filename R:\Misc\What\Howard Shore - The Hobbit - The Battle Of The Five Armies [FLAC]\CD2\05 - Track05.wav

Pre-gap length 0:00:02.01

Peak level 98.2 % Extraction speed 4.5 X Track quality 100.0 % Test CRC E5AF3C72 Copy CRC E5AF3C72 Track not present in AccurateRip database Copy OK

Track 6

Filename R:\Misc\What\Howard Shore - The Hobbit - The Battle Of The Five Armies [FLAC]\CD2\06 - Track06.wav

Pre-gap length 0:00:01.84

Peak level 78.2 % Extraction speed 4.2 X Track quality 100.0 % Test CRC 19645D0C Copy CRC 19645D0C Track not present in AccurateRip database Copy OK

Track 7

Filename R:\Misc\What\Howard Shore - The Hobbit - The Battle Of The Five Armies [FLAC]\CD2\07 - Track07.wav

Pre-gap length 0:00:01.06

Peak level 97.4 % Extraction speed 4.4 X Track quality 100.0 % Test CRC A9A8776B Copy CRC A9A8776B Track not present in AccurateRip database Copy OK

Track 8

Filename R:\Misc\What\Howard Shore - The Hobbit - The Battle Of The Five Armies [FLAC]\CD2\08 - Track08.wav

Pre-gap length 0:00:00.96

Peak level 71.7 % Extraction speed 4.5 X Track quality 100.0 % Test CRC BC50B6BC Copy CRC BC50B6BC Track not present in AccurateRip database Copy OK

Track 9

Filename R:\Misc\What\Howard Shore - The Hobbit - The Battle Of The Five Armies [FLAC]\CD2\09 - Track09.wav

Pre-gap length 0:00:01.85

Peak level 97.2 % Extraction speed 4.6 X Track quality 100.0 % Test CRC D14864E1 Copy CRC D14864E1 Track not present in AccurateRip database Copy OK

Track 10

Filename R:\Misc\What\Howard Shore - The Hobbit - The Battle Of The Five Armies [FLAC]\CD2\10 - Track10.wav

Pre-gap length 0:00:01.04

Peak level 97.7 % Extraction speed 5.0 X Track quality 100.0 % Test CRC 2842D8C0 Copy CRC 2842D8C0 Track not present in AccurateRip database Copy OK

Track 11

Filename R:\Misc\What\Howard Shore - The Hobbit - The Battle Of The Five Armies [FLAC]\CD2\11 - Track11.wav

Pre-gap length 0:00:04.89

Peak level 97.5 % Extraction speed 4.8 X Track quality 100.0 % Test CRC A02FE907 Copy CRC A02FE907 Track not present in AccurateRip database Copy OK

Track 12

Filename R:\Misc\What\Howard Shore - The Hobbit - The Battle Of The Five Armies [FLAC]\CD2\12 - Track12.wav

Pre-gap length 0:00:03.12

Peak level 98.0 % Extraction speed 3.9 X Track quality 100.0 % Test CRC 55BF8735 Copy CRC 55BF8735 Track not present in AccurateRip database Copy OK

None of the tracks are present in the AccurateRip database

No errors occurred

End of status report

==== Log checksum FF0D0B50943EDC9B581347023481A10E333BD85946545BC23F4D90E76E26EC59 ====
REM GENRE SoundtrackREM DATE 2014REM DISCID BC0DF60CREM COMMENT "ExactAudioCopy v1.0b3"CATALOG 0602547104960PERFORMER "Howard Shore"TITLE "The Hobbit - The Battle Of The Five Armies"FILE "01 - Track01.wav" WAVE TRACK 01 AUDIO TITLE "Track01" PERFORMER "Howard Shore" ISRC USNLR1400813 INDEX 01 00:00:00 TRACK 02 AUDIO TITLE "Track02" PERFORMER "Howard Shore" ISRC USNLR1400814 INDEX 00 05:33:02FILE "02 - Track02.wav" WAVE INDEX 01 00:00:00 TRACK 03 AUDIO TITLE "Track03" PERFORMER "Howard Shore" ISRC USNLR1400815 INDEX 00 04:24:09FILE "03 - Track03.wav" WAVE INDEX 01 00:00:00 TRACK 04 AUDIO TITLE "Track04" PERFORMER "Howard Shore" ISRC USNLR1400816 INDEX 00 04:55:17FILE "04 - Track04.wav" WAVE INDEX 01 00:00:00 TRACK 05 AUDIO TITLE "Track05" PERFORMER "Howard Shore" ISRC USNLR1400825 INDEX 00 05:46:17FILE "05 - Track05.wav" WAVE INDEX 01 00:00:00 TRACK 06 AUDIO TITLE "Track06" PERFORMER "Howard Shore" ISRC USNLR1400818 INDEX 00 07:21:09FILE "06 - Track06.wav" WAVE INDEX 01 00:00:00 TRACK 07 AUDIO TITLE "Track07" PERFORMER "Howard Shore" ISRC USNLR1400819 INDEX 00 05:09:07FILE "07 - Track07.wav" WAVE INDEX 01 00:00:00 TRACK 08 AUDIO TITLE "Track08" PERFORMER "Howard Shore" ISRC USNLR1400820 INDEX 00 04:17:14FILE "08 - Track08.wav" WAVE INDEX 01 00:00:00 TRACK 09 AUDIO TITLE "Track09" PERFORMER "Howard Shore" ISRC USNLR1400821 INDEX 00 04:18:27FILE "09 - Track09.wav" WAVE INDEX 01 00:00:00 TRACK 10 AUDIO TITLE "Track10" PERFORMER "Howard Shore" ISRC USNLR1400826 INDEX 00 04:06:24FILE "10 - Track10.wav" WAVE INDEX 01 00:00:00 TRACK 11 AUDIO TITLE "Track11" PERFORMER "Howard Shore" ISRC USNLR1400827 INDEX 00 06:06:51FILE "11 - Track11.wav" WAVE INDEX 01 00:00:00 TRACK 12 AUDIO TITLE "Track12" PERFORMER "Howard Shore" ISRC USNLR1400828 INDEX 00 03:49:59FILE "12 - Track12.wav" WAVE INDEX 01 00:00:00

MP3: [url=...4884629](Score) Хоббит: Битва Пяти Воинств / The Hobbit: The Battle of the Five Armies (Special Edition) (Howard Shore) - 2014, MP3, 320 kbps[/url]


Трекер:  [ 07-Дек-2014 11:30 ]

  

Скачать .torrent

Размер .torrent файла 13 KB


Размер: 540 MB
Хэш (hash) релиза: ad90d199e8cf5100696b8d774840a9f3a46e8346

Еще никто не оставлял запись к записи скачать торрент Хоббит: Битва Пяти Воинств The Hobbit: The Battle of the Five Armies . Будь первым!

!Обратная связь