Скачать через торрент музыку Белая птица в метели White Bird in a Blizzard бесплатно без регистрации torrent

Если у вас наблюдаются проблемы со скриншотами, переходом по ссылками, скачиванием торрентов - проблемы в блокировщике рекламы AdBlock. #хорошегоДня!


Статистика раздачи
Размер:  198 MB   |    Зарегистрирован:  2 года 9 месяцев   |    .torrent скачан:  38 раз   |   
Раздают:  1  
   
Загрузка...
 
Автор Сообщение

Galfimbul

avatar Galfimbul


Белая птица в метели / White Bird in a Blizzard

Название альбома: White Bird in a Blizzard
Жанр: Score
Композитор: Robin Guthrie, Harold Budd
Год выпуска диска: 2014
Год выпуска фильма: 2014
Страна-производитель диска: US
Издатель (лейбл): Lakeshore Records
Номер по каталогу: LKS 344142
Аудиокодек: FLAC
Тип рипа: tracks+.cue
Битрейт аудио: lossless
Продолжительность: 00:41:05
Источник: lztr
Наличие сканов в содержимом раздачи: да
ID3-теги: да
Треклист:
01. Robin Guthrie - Visions of Eve (2:39) [481 Kb/s]
02. Robin Guthrie - Brock's Theme (2:46) [731 Kb/s]
03. Harold Budd - The Radiant Bride (3:41) [487 Kb/s]
04. Harold Budd and Robin Guthrie - Curious (3:21) [532 Kb/s]
05. Robin Guthrie - Forever Changed (4:05) [712 Kb/s]
06. Harold Budd - The Affair (3:48) [470 Kb/s]
07. Robin Guthrie - You Know the Combination (3:48) [612 Kb/s]
08. Harold Budd and Robin Guthrie - Without a Trace (3:01) [502 Kb/s]
09. Harold Budd - Lament for Eve (4:11) [415 Kb/s]
10. Harold Budd - The Drive (3:41) [367 Kb/s]
11. Robin Guthrie - I'm Here, Kat, I'm Here (3:00) [732 Kb/s]
12. Robin Guthrie - White Bird (3:11) [527 Kb/s]
Exact Audio Copy V1.0 beta 3 from 29. August 2011

EAC extraction logfile from 26. November 2014, 21:45

Robin Guthrie and Harold Budd / White Bird in a Blizzard

Used drive : HL-DT-STDVD-RAM GH22LP21 Adapter: 0 ID: 0

Read mode : SecureUtilize accurate stream : YesDefeat audio cache : YesMake use of C2 pointers : No

Read offset correction : 102Overread into Lead-In and Lead-Out : NoFill up missing offset samples with silence : YesDelete leading and trailing silent blocks : NoNull samples used in CRC calculations : YesUsed interface : Native Win32 interface for Win NT & 2000Gap handling : Appended to previous track

Used output format : User Defined EncoderSelected bitrate : 128 kBit/sQuality : HighAdd ID3 tag : NoCommand line compressor : C:\Program Files\Exact Audio Copy\Flac\flac.exeAdditional command line options : -8 -V -T "ARTIST=%artist%" -T "TITLE=%title%" -T "ALBUM=%albumtitle%" -T "DATE=%year%" -T "TRACKNUMBER=%tracknr%" -T "GENRE=%genre%" -T "PERFORMER=%albuminterpret%" -T "COMPOSER=%composer%" %haslyrics%--tag-from-file=LYRICS="%lyricsfile%"%haslyrics% -T "ALBUMARTIST=%albumartist%" -T "ALBUM ARTIST=%albumartist%" -T "DISCNUMBER=%cdnumber%" -T "TOTALDISCS=%totalcds%" -T "TOTALTRACKS=%numtracks%" -T "COMMENT=%comment%" %source% -o %dest%

TOC of the extracted CD

Track | Start | Length | Start sector | End sector --------------------------------------------------------- 1 | 0:00.00 | 2:39.05 | 0 | 11929 2 | 2:39.05 | 2:45.50 | 11930 | 24354 3 | 5:24.55 | 3:41.02 | 24355 | 40931 4 | 9:05.57 | 3:20.71 | 40932 | 56002 5 | 12:26.53 | 4:04.69 | 56003 | 74371 6 | 16:31.47 | 3:47.63 | 74372 | 91459 7 | 20:19.35 | 3:48.26 | 91460 | 108585 8 | 24:07.61 | 3:01.12 | 108586 | 122172 9 | 27:08.73 | 4:10.57 | 122173 | 140979 10 | 31:19.55 | 3:40.41 | 140980 | 157520 11 | 35:00.21 | 2:59.67 | 157521 | 171012 12 | 38:00.13 | 3:11.36 | 171013 | 185373

Track 1

Filename H:\Music04_moviez\W\White Bird in a Blizzard (2014, FLAC) - Robin Guthrie and Harold Budd\01 - Robin Guthrie - Visions of Eve.wav

Pre-gap length 0:00:02.00

Peak level 78.8 % Extraction speed 1.4 X Track quality 100.0 % Test CRC B9B707A2 Copy CRC B9B707A2 Track not present in AccurateRip database Copy OK

Track 2

Filename H:\Music04_moviez\W\White Bird in a Blizzard (2014, FLAC) - Robin Guthrie and Harold Budd\02 - Robin Guthrie - Brock's Theme.wav

Pre-gap length 0:00:00.90

Peak level 92.6 % Extraction speed 1.3 X Track quality 99.9 % Test CRC 95175404 Copy CRC 95175404 Track not present in AccurateRip database Copy OK

Track 3

Filename H:\Music04_moviez\W\White Bird in a Blizzard (2014, FLAC) - Robin Guthrie and Harold Budd\03 - Harold Budd - The Radiant Bride.wav

Pre-gap length 0:00:00.90

Peak level 61.6 % Extraction speed 1.7 X Track quality 100.0 % Test CRC 6297A593 Copy CRC 6297A593 Track not present in AccurateRip database Copy OK

Track 4

Filename H:\Music04_moviez\W\White Bird in a Blizzard (2014, FLAC) - Robin Guthrie and Harold Budd\04 - Harold Budd and Robin Guthrie - Curious.wav

Pre-gap length 0:00:01.01

Peak level 82.7 % Extraction speed 1.8 X Track quality 100.0 % Test CRC 42D9D83C Copy CRC 42D9D83C Track not present in AccurateRip database Copy OK

Track 5

Filename H:\Music04_moviez\W\White Bird in a Blizzard (2014, FLAC) - Robin Guthrie and Harold Budd\05 - Robin Guthrie - Forever Changed.wav

Pre-gap length 0:00:00.37

Peak level 97.2 % Extraction speed 2.0 X Track quality 100.0 % Test CRC A291D6F6 Copy CRC A291D6F6 Track not present in AccurateRip database Copy OK

Track 6

Filename H:\Music04_moviez\W\White Bird in a Blizzard (2014, FLAC) - Robin Guthrie and Harold Budd\06 - Harold Budd - The Affair.wav

Pre-gap length 0:00:01.17

Peak level 91.3 % Extraction speed 2.1 X Track quality 100.0 % Test CRC E2344222 Copy CRC E2344222 Track not present in AccurateRip database Copy OK

Track 7

Filename H:\Music04_moviez\W\White Bird in a Blizzard (2014, FLAC) - Robin Guthrie and Harold Budd\07 - Robin Guthrie - You Know the Combination.wav

Pre-gap length 0:00:00.98

Peak level 98.1 % Extraction speed 2.3 X Track quality 100.0 % Test CRC 05B08701 Copy CRC 05B08701 Track not present in AccurateRip database Copy OK

Track 8

Filename H:\Music04_moviez\W\White Bird in a Blizzard (2014, FLAC) - Robin Guthrie and Harold Budd\08 - Harold Budd and Robin Guthrie - Without a Trace.wav

Pre-gap length 0:00:00.97

Peak level 83.9 % Extraction speed 2.2 X Track quality 100.0 % Test CRC 24A936A5 Copy CRC 24A936A5 Track not present in AccurateRip database Copy OK

Track 9

Filename H:\Music04_moviez\W\White Bird in a Blizzard (2014, FLAC) - Robin Guthrie and Harold Budd\09 - Harold Budd - Lament for Eve.wav

Pre-gap length 0:00:01.14

Peak level 89.6 % Extraction speed 2.5 X Track quality 100.0 % Test CRC D68DC8B6 Copy CRC D68DC8B6 Track not present in AccurateRip database Copy OK

Track 10

Filename H:\Music04_moviez\W\White Bird in a Blizzard (2014, FLAC) - Robin Guthrie and Harold Budd\10 - Harold Budd - The Drive.wav

Pre-gap length 0:00:01.01

Peak level 94.0 % Extraction speed 2.5 X Track quality 100.0 % Test CRC FFF4CC79 Copy CRC FFF4CC79 Track not present in AccurateRip database Copy OK

Track 11

Filename H:\Music04_moviez\W\White Bird in a Blizzard (2014, FLAC) - Robin Guthrie and Harold Budd\11 - Robin Guthrie - I'm Here, Kat, I'm Here.wav

Pre-gap length 0:00:00.97

Peak level 99.3 % Extraction speed 2.1 X Track quality 99.9 % Test CRC E6036FCC Copy CRC E6036FCC Track not present in AccurateRip database Copy OK

Track 12

Filename H:\Music04_moviez\W\White Bird in a Blizzard (2014, FLAC) - Robin Guthrie and Harold Budd\12 - Robin Guthrie - White Bird.wav

Pre-gap length 0:00:01.38

Peak level 98.8 % Extraction speed 2.6 X Track quality 100.0 % Test CRC 3890EB78 Copy CRC 3890EB78 Track not present in AccurateRip database Copy OK

None of the tracks are present in the AccurateRip database

No errors occurred

End of status report

---- CUETools DB Plugin V2.1.3

[CTDB TOCID: 5HZnfczpP_DFih1Mq6iWqoCQRbY-] found, Submit result: 5HZnfczpP_DFih1Mq6iWqoCQRbY- has been confirmed[8a519c27] (2/2) Accurately ripped

==== Log checksum D81F188E9E8F484264897D816391B97844730AFC7E7EED5AE76A3A9D47E65DCB ====
REM GENRE SoundtrackREM DATE 2014REM DISCID 9409A70CREM COMMENT "ExactAudioCopy v1.0b3"PERFORMER "Robin Guthrie and Harold Budd"TITLE "White Bird in a Blizzard"FILE "01 - Robin Guthrie - Visions of Eve.wav" WAVE TRACK 01 AUDIO TITLE "Visions of Eve" PERFORMER "Robin Guthrie" INDEX 01 00:00:00 TRACK 02 AUDIO TITLE "Brock's Theme" PERFORMER "Robin Guthrie" INDEX 00 02:38:12FILE "02 - Robin Guthrie - Brock's Theme.wav" WAVE INDEX 01 00:00:00 TRACK 03 AUDIO TITLE "The Radiant Bride" PERFORMER "Harold Budd" INDEX 00 02:44:57FILE "03 - Harold Budd - The Radiant Bride.wav" WAVE INDEX 01 00:00:00 TRACK 04 AUDIO TITLE "Curious" PERFORMER "Harold Budd and Robin Guthrie" INDEX 00 03:40:01FILE "04 - Harold Budd and Robin Guthrie - Curious.wav" WAVE INDEX 01 00:00:00 TRACK 05 AUDIO TITLE "Forever Changed" PERFORMER "Robin Guthrie" INDEX 00 03:20:43FILE "05 - Robin Guthrie - Forever Changed.wav" WAVE INDEX 01 00:00:00 TRACK 06 AUDIO TITLE "The Affair" PERFORMER "Harold Budd" INDEX 00 04:03:56FILE "06 - Harold Budd - The Affair.wav" WAVE INDEX 01 00:00:00 TRACK 07 AUDIO TITLE "You Know the Combination" PERFORMER "Robin Guthrie" INDEX 00 03:46:64FILE "07 - Robin Guthrie - You Know the Combination.wav" WAVE INDEX 01 00:00:00 TRACK 08 AUDIO TITLE "Without a Trace" PERFORMER "Harold Budd and Robin Guthrie" INDEX 00 03:47:28FILE "08 - Harold Budd and Robin Guthrie - Without a Trace.wav" WAVE INDEX 01 00:00:00 TRACK 09 AUDIO TITLE "Lament for Eve" PERFORMER "Harold Budd" INDEX 00 03:00:01FILE "09 - Harold Budd - Lament for Eve.wav" WAVE INDEX 01 00:00:00 TRACK 10 AUDIO TITLE "The Drive" PERFORMER "Harold Budd" INDEX 00 04:09:56FILE "10 - Harold Budd - The Drive.wav" WAVE INDEX 01 00:00:00 TRACK 11 AUDIO TITLE "I'm Here, Kat, I'm Here" PERFORMER "Robin Guthrie" INDEX 00 03:39:43FILE "11 - Robin Guthrie - I'm Here, Kat, I'm Here.wav" WAVE INDEX 01 00:00:00 TRACK 12 AUDIO TITLE "White Bird" PERFORMER "Robin Guthrie" INDEX 00 02:58:38FILE "12 - Robin Guthrie - White Bird.wav" WAVE INDEX 01 00:00:00
[url=...4882237]mp3[/url]

RG Soundtracks

Трекер:  [ 02-Дек-2014 17:00 ]

  

Скачать .torrent

Размер .torrent файла 17 KB


Размер: 198 MB
Хэш (hash) релиза: 490a8a3790bf8377120fa19e17d97500aced9282

Торренты, похожие на Белая птица в метели White Bird in a Blizzard скачать торрент

Форум Название Автор Размер S L Добавлен
Саундтреки к фильмам и мультфильмам (mp3) ·· (Score) Белая птица в метели / White Bird in a Blizzard (Robin Guthrie, Harold Budd) - 2014, MP3 (tracks) 320 kbps Galfimbul 139175130133 MB 0 0 1417529050

17:04

2-Дек-14

Еще никто не оставлял запись к записи скачать торрент Белая птица в метели White Bird in a Blizzard . Будь первым!

!Обратная связь