Скачать через торрент музыку Сошествие в ад Descente aux enfers бесплатно без регистрации torrent

Если у вас наблюдаются проблемы со скриншотами, переходом по ссылками, скачиванием торрентов - проблемы в блокировщике рекламы AdBlock. #хорошегоДня!


Статистика раздачи
Размер:  293 MB   |    Зарегистрирован:  2 года 9 месяцев   |    .torrent скачан:  32 раза   |   
Раздают:  1  
   
Загрузка...
 
Автор Сообщение

Galfimbul

avatar Galfimbul



Сошествие в ад / Descente aux enfers
Composed and Conducted by Georges Delerue
Limited Edition of 1000 Copies

Жанр: Score | Дата выпуска: 21 сентября 2011
Издатель (лейбл): Music Box Records | Номер по каталогу: MBR-004
Аудиокодек: FLAC | Тип рипа: image+.cue | Битрейт аудио: lossless
Общая продолжительность: 46:42
Источник: Рип оригинального диска из личной коллекции
01. Générique début [3:57]
02. Alan et Lola [3:28]
03. Bonheur trompe l'œil [1:05]
04. Le joli jeune homme [1:20]
05. Alan [1:59]
06. La plage [1:27]
07. Le spleen d'Alan [3:27]
08. Alan au bar [2:40]
09. Baignoire rock [3:26]
10. Descente aux enfers d'Alan [1:58]
11. Philippe et Lola [1:49]
12. Feu dans la nuit [2:32)
13. La mort de Kléber [2:01]
14. La bouteille à la mer [1:25]
15. La confession de Lola / Générique fin [4:19]
16. Arrivée à l'hôtel [1:23)
17. Maîtres chanteurs [1:50]
18. Nocturne [0:57]
19. Flashback métro [2:08]
20. Ma femme douce, ma femme dure [1:10]
21. Le joli jeune homme (version alternative) [1:18]
Exact Audio Copy V1.0 beta 3 from 29. August 2011

EAC extraction logfile from 24. October 2014, 19:19

Georges Delerue / Descente aux enfers

Used drive : TSSTcorpCDDVDW TS-L633C Adapter: 2 ID: 0

Read mode : SecureUtilize accurate stream : YesDefeat audio cache : YesMake use of C2 pointers : No

Read offset correction : 6Overread into Lead-In and Lead-Out : NoFill up missing offset samples with silence : YesDelete leading and trailing silent blocks : NoNull samples used in CRC calculations : YesUsed interface : Native Win32 interface for Win NT & 2000

Used output format : Internal WAV RoutinesSample format : 44.100 Hz; 16 Bit; Stereo

TOC of the extracted CD

Track | Start | Length | Start sector | End sector --------------------------------------------------------- 1 | 0:00.00 | 4:00.25 | 0 | 18024 2 | 4:00.25 | 3:31.18 | 18025 | 33867 3 | 7:31.43 | 1:07.25 | 33868 | 38917 4 | 8:38.68 | 1:22.48 | 38918 | 45115 5 | 10:01.41 | 2:00.70 | 45116 | 54185 6 | 12:02.36 | 1:29.34 | 54186 | 60894 7 | 13:31.70 | 3:29.50 | 60895 | 76619 8 | 17:01.45 | 2:44.29 | 76620 | 88948 9 | 19:45.74 | 3:28.48 | 88949 | 104596 10 | 23:14.47 | 2:00.43 | 104597 | 113639 11 | 25:15.15 | 1:51.41 | 113640 | 122005 12 | 27:06.56 | 2:35.04 | 122006 | 133634 13 | 29:41.60 | 2:04.05 | 133635 | 142939 14 | 31:45.65 | 1:28.36 | 142940 | 149575 15 | 33:14.26 | 4:26.44 | 149576 | 169569 16 | 37:40.70 | 1:25.03 | 169570 | 175947 17 | 39:05.73 | 1:52.26 | 175948 | 184373 18 | 40:58.24 | 1:00.63 | 184374 | 188936 19 | 41:59.12 | 2:10.71 | 188937 | 198757 20 | 44:10.08 | 1:12.14 | 198758 | 204171 21 | 45:22.22 | 1:18.08 | 204172 | 210029

Range status and errors

Selected range

Filename H:\Georges Delerue - CD Collection [by italia57]\Georges Delerue (1986) Descente aux enfers\Georges Delerue - Descente aux enfers (MBR-004).wav

Peak level 76.9 % Extraction speed 1.2 X Range quality 99.9 % Test CRC 07DD8551 Copy CRC 07DD8551 Copy OK

No errors occurred

AccurateRip summary

Track 1 accurately ripped (confidence 4) [EE7D6730] (AR v2)Track 2 accurately ripped (confidence 4) [10D84111] (AR v2)Track 3 accurately ripped (confidence 4) [6C8D39B3] (AR v2)Track 4 accurately ripped (confidence 4) [7D230BBF] (AR v2)Track 5 accurately ripped (confidence 4) [0CC0C8ED] (AR v2)Track 6 accurately ripped (confidence 4) [50D5F2DC] (AR v2)Track 7 accurately ripped (confidence 4) [C207B40F] (AR v2)Track 8 accurately ripped (confidence 4) [8E2F58FC] (AR v2)Track 9 accurately ripped (confidence 4) [F190FF78] (AR v2)Track 10 accurately ripped (confidence 4) [6F2B4F73] (AR v2)Track 11 accurately ripped (confidence 4) [D4AC2178] (AR v2)Track 12 accurately ripped (confidence 4) [C8E88833] (AR v2)Track 13 accurately ripped (confidence 4) [5762C4CC] (AR v2)Track 14 accurately ripped (confidence 4) [21DEE2A4] (AR v2)Track 15 accurately ripped (confidence 4) [2B4CE187] (AR v2)Track 16 accurately ripped (confidence 4) [27F97169] (AR v2)Track 17 accurately ripped (confidence 4) [CAB02C28] (AR v2)Track 18 accurately ripped (confidence 4) [43A3BB51] (AR v2)Track 19 accurately ripped (confidence 4) [57A61708] (AR v2)Track 20 accurately ripped (confidence 4) [E33B326E] (AR v2)Track 21 accurately ripped (confidence 4) [72F0158C] (AR v2)

All tracks accurately ripped

End of status report

---- CUETools DB Plugin V2.1.4

[CTDB TOCID: r62z3ZibHeus23QgPnu.lXtqXyA-] foundSubmit result: r62z3ZibHeus23QgPnu.lXtqXyA- has been confirmedTrack | CTDB Status 1 | (4/4) Accurately ripped 2 | (4/4) Accurately ripped 3 | (4/4) Accurately ripped 4 | (4/4) Accurately ripped 5 | (4/4) Accurately ripped 6 | (4/4) Accurately ripped 7 | (4/4) Accurately ripped 8 | (4/4) Accurately ripped 9 | (4/4) Accurately ripped 10 | (4/4) Accurately ripped 11 | (4/4) Accurately ripped 12 | (4/4) Accurately ripped 13 | (4/4) Accurately ripped 14 | (4/4) Accurately ripped 15 | (4/4) Accurately ripped 16 | (4/4) Accurately ripped 17 | (4/4) Accurately ripped 18 | (4/4) Accurately ripped 19 | (4/4) Accurately ripped 20 | (4/4) Accurately ripped 21 | (4/4) Accurately ripped

==== Log checksum 358ABA4E1897818375FE668718C3D32C3F60A8D6F8F9D6F55EDDDDDD7BF7C15D ====
REM GENRE SoundtrackREM DATE 1986REM DISCID 160AF015REM COMMENT "ExactAudioCopy v1.0b3"PERFORMER "Georges Delerue"TITLE "Descente aux enfers"FILE "Georges Delerue - Descente aux enfers (MBR-004).flac" WAVE TRACK 01 AUDIO TITLE "Generique debut" PERFORMER "Georges Delerue" INDEX 01 00:00:00 TRACK 02 AUDIO TITLE "Alan et Lola" PERFORMER "Georges Delerue" INDEX 00 03:57:25 INDEX 01 04:00:25 TRACK 03 AUDIO TITLE "Bonheur trompe-l'oeil" PERFORMER "Georges Delerue" INDEX 00 07:28:73 INDEX 01 07:31:43 TRACK 04 AUDIO TITLE "Le joli jeune homme" PERFORMER "Georges Delerue" INDEX 00 08:36:68 INDEX 01 08:38:68 TRACK 05 AUDIO TITLE "Alan" PERFORMER "Georges Delerue" INDEX 00 09:59:01 INDEX 01 10:01:41 TRACK 06 AUDIO TITLE "La plage" PERFORMER "Georges Delerue" INDEX 00 12:00:41 INDEX 01 12:02:36 TRACK 07 AUDIO TITLE "Le spleen d'Alan" PERFORMER "Georges Delerue" INDEX 00 13:29:70 INDEX 01 13:31:70 TRACK 08 AUDIO TITLE "Alan au bar" PERFORMER "Georges Delerue" INDEX 00 16:58:70 INDEX 01 17:01:45 TRACK 09 AUDIO TITLE "Baignoire rock" PERFORMER "Georges Delerue" INDEX 00 19:41:74 INDEX 01 19:45:74 TRACK 10 AUDIO TITLE "La descente aux enfers d'Alan" PERFORMER "Georges Delerue" INDEX 00 23:12:10 INDEX 01 23:14:47 TRACK 11 AUDIO TITLE "Philippe et Lola" PERFORMER "Georges Delerue" INDEX 00 25:13:15 INDEX 01 25:15:15 TRACK 12 AUDIO TITLE "Feu dans la nuit" PERFORMER "Georges Delerue" INDEX 00 27:04:16 INDEX 01 27:06:56 TRACK 13 AUDIO TITLE "La mort de Kleber" PERFORMER "Georges Delerue" INDEX 00 29:39:30 INDEX 01 29:41:60 TRACK 14 AUDIO TITLE "La bouteille a la mer" PERFORMER "Georges Delerue" INDEX 00 31:43:35 INDEX 01 31:45:65 TRACK 15 AUDIO TITLE "La confession de Lola - Generique fin" PERFORMER "Georges Delerue" INDEX 00 33:11:45 INDEX 01 33:14:26 TRACK 16 AUDIO TITLE "Arrivee a l'hotel [Bonus]" PERFORMER "Georges Delerue" INDEX 00 37:34:08 INDEX 01 37:40:70 TRACK 17 AUDIO TITLE "Maitres chanteurs [Bonus]" PERFORMER "Georges Delerue" INDEX 00 39:03:73 INDEX 01 39:05:73 TRACK 18 AUDIO TITLE "Nocturne [Bonus]" PERFORMER "Georges Delerue" INDEX 00 40:56:24 INDEX 01 40:58:24 TRACK 19 AUDIO TITLE "Flashback metro [Bonus]" PERFORMER "Georges Delerue" INDEX 00 41:56:12 INDEX 01 41:59:12 TRACK 20 AUDIO TITLE "Ma femme douce, ma femme dure [Bonus]" PERFORMER "Georges Delerue" INDEX 00 44:08:08 INDEX 01 44:10:08 TRACK 21 AUDIO TITLE "Le joli jeune homme (Version alternative) [Bonus]" PERFORMER "Georges Delerue" INDEX 00 45:20:22 INDEX 01 45:22:22


Трекер:  [ 30-Ноя-2014 00:00 ]

  

Скачать .torrent

Размер .torrent файла 12 KB


Размер: 293 MB
Хэш (hash) релиза: 04cef62c31922756a3f377b693f1b9c34024e731

Торренты, похожие на Сошествие в ад Descente aux enfers скачать торрент

Форум Название Автор Размер S L Добавлен
Саундтреки к фильмам и мультфильмам (mp3) ·· (Score) Сошествие в ад / Descente aux enfers // Descent Into Hell (by Georges Delerue) - 2011 (1986), MP3 (tracks), 320 kbps Galfimbul 172255072164 MB 0 0 1424872317

16:51

25-Фев-15

Еще никто не оставлял запись к записи скачать торрент Сошествие в ад Descente aux enfers . Будь первым!

!Обратная связь