Скачать через торрент музыку Александр Зацепин - Золотые шлягеры Александра Зацепина - 1996, FLAC бесплатно без регистрации torrent

Если у вас наблюдаются проблемы со скриншотами, переходом по ссылками, скачиванием торрентов - проблемы в блокировщике рекламы AdBlock. #хорошегоДня!


Статистика раздачи
Размер:  410 MB   |    Зарегистрирован:  2 года 9 месяцев   |    .torrent скачан:  28 раз   |   
Раздают:  1  
   
Загрузка...
 
Автор Сообщение

Galfimbul

avatar Galfimbul


Александр Зацепин - Золотые шлягеры Александра Зацепина
Жанр: Soundtrack
Год выпуска диска: 1996
Страна-производитель диска: Россия
Издатель (лейбл): Russian Disc
Номер по каталогу: RDCD 00516
Аудиокодек: FLAC (*.flac)
Тип рипа: tracks+.cue
Битрейт аудио: lossless
Продолжительность: 01:14:05
Источник: собственный рип
Наличие сканов в содержимом раздачи: да
Треклист:
<div style="margin-left: 2em" class="post-ul">01. Алла Пугачёва - Этот мир (2:42)
02. Андрей Миронов - Остров Невезения (2:24)
03. Аида Ведищева - Помоги мне (4:07)
04. Аида Ведищева - Медведи (3:01)
05. Олег Анофриев - Есть только миг (3:46)
06. Юрий Никулин - А нам всё равно (3:14)
07. Алла Пугачёва - И кто виноват (5:18)
08. Валерий Ободзинский - Небо моё (4:42)
09. Алла Пугачёва - Волшебник-недоучка (3:23)
10. Оркестр - Берег моря (2:59)
11. Татьяна Анциферова - Мир без любимого (4:15)
12. Алла Пугачёва - Так же, как все (3:44)
13. Олег Анофриев - Всё было (3:24)
14. Алла Пугачёва - До свиданья, лето (4:43)
15. Татьяна Анциферова - Звёздный мост (3:58)
16. Феликс Красиловский - Было и прошло (3:25)
17. Алла Пугачёва - Куда уходит детство (4:52)
18. Алла Пугачёва - Ты не стал судьбой (5:01)
19. Валерий Золотухин - Разговор со счастьем (2:41)
20. Хор ансамбля МВО - Кап, кап, кап (2:26)</div>
Exact Audio Copy V1.0 beta 3 from 29. August 2011

Отчёт EAC об извлечении, выполненном 10. декабря 2013, 20:29

Various Artists / Золотые шлягеры Александра Зацепина

Дисковод: PIONEER DVD-RW DVR-218L Adapter: 0 ID: 0

Режим чтения : ДостоверностьИспользование точного потока : ДаОтключение кэша аудио : ДаИспользование указателей C2 : Нет

Коррекция смещения при чтении : 6Способность читать области Lead-in и Lead-out : НетЗаполнение пропущенных сэмплов тишиной : ДаУдаление блоков с тишиной в начале и конце : НетПри вычислениях CRC использовались нулевые сэмплы : ДаИнтерфейс : Встроенный Win32-интерфейс для Win NT/2000Обработка зазоров : Добавлено к предыдущему треку

Выходной формат : Пользовательский кодировщикВыбранный битрейт : 128 kBit/sКачество : ВысокийДобавление ID3-тега : НетУтилита сжатия : C:\Program Files (x86)\Exact Audio Copy\Flac\flac.exeДополнительные параметры : -V -7 -T "Genre=%genre%" -T "Artist=%artist%" -T "Title=%title%" -T "Album=%albumtitle%" -T "Date=%year%" -T "Tracknumber=%tracknr%" -T "Comment=%comment%" %source%

TOC извлечённого CD

Трек | Старт | Длительность | Начальный сектор | Конечный сектор --------------------------------------------------------------------- 1 | 0:00.00 | 2:42.00 | 0 | 12149 2 | 2:42.00 | 2:24.00 | 12150 | 22949 3 | 5:06.00 | 4:07.00 | 22950 | 41474 4 | 9:13.00 | 3:01.00 | 41475 | 55049 5 | 12:14.00 | 3:46.00 | 55050 | 71999 6 | 16:00.00 | 3:14.00 | 72000 | 86549 7 | 19:14.00 | 5:18.00 | 86550 | 110399 8 | 24:32.00 | 4:42.00 | 110400 | 131549 9 | 29:14.00 | 3:23.00 | 131550 | 146774 10 | 32:37.00 | 2:59.00 | 146775 | 160199 11 | 35:36.00 | 4:15.00 | 160200 | 179324 12 | 39:51.00 | 3:44.00 | 179325 | 196124 13 | 43:35.00 | 3:24.00 | 196125 | 211424 14 | 46:59.00 | 4:43.00 | 211425 | 232649 15 | 51:42.00 | 3:58.00 | 232650 | 250499 16 | 55:40.00 | 3:25.00 | 250500 | 265874 17 | 59:05.00 | 4:52.00 | 265875 | 287774 18 | 63:57.00 | 5:01.00 | 287775 | 310349 19 | 68:58.00 | 2:41.00 | 310350 | 322424 20 | 71:39.00 | 2:26.00 | 322425 | 333374

Трек 1

Имя файла F:\_МУЗЫКА\Золотые шлягеры Александра Зацепина (1996)\01 Алла Пугачёва - Этот мир.wav

Длина предзазора 0:00:02.00

Пиковый уровень 73.4 % Скорость извлечения 0.9 X Качество трека 99.9 % CRC теста 0DA9013D CRC копии 0DA9013D Трек не обнаружен в базе AccurateRip Копирование... OK

Трек 2

Имя файла F:\_МУЗЫКА\Золотые шлягеры Александра Зацепина (1996)\02 Андрей Миронов - Остров Невезения.wav

Длина предзазора 0:00:04.00

Пиковый уровень 51.7 % Скорость извлечения 1.1 X Качество трека 100.0 % CRC теста 483AC7B6 CRC копии 483AC7B6 Трек не обнаружен в базе AccurateRip Копирование... OK

Трек 3

Имя файла F:\_МУЗЫКА\Золотые шлягеры Александра Зацепина (1996)\03 Аида Ведищева - Помоги мне.wav

Длина предзазора 0:00:05.00

Пиковый уровень 54.6 % Скорость извлечения 1.2 X Качество трека 99.9 % CRC теста 3D27FA80 CRC копии 3D27FA80 Трек не обнаружен в базе AccurateRip Копирование... OK

Трек 4

Имя файла F:\_МУЗЫКА\Золотые шлягеры Александра Зацепина (1996)\04 Аида Ведищева - Медведи.wav

Длина предзазора 0:00:04.00

Пиковый уровень 47.7 % Скорость извлечения 1.4 X Качество трека 100.0 % CRC теста 45479688 CRC копии 45479688 Трек не обнаружен в базе AccurateRip Копирование... OK

Трек 5

Имя файла F:\_МУЗЫКА\Золотые шлягеры Александра Зацепина (1996)\05 Олег Анофриев - Есть только миг.wav

Длина предзазора 0:00:05.00

Пиковый уровень 44.7 % Скорость извлечения 1.5 X Качество трека 100.0 % CRC теста E6E4E1A3 CRC копии E6E4E1A3 Трек не обнаружен в базе AccurateRip Копирование... OK

Трек 6

Имя файла F:\_МУЗЫКА\Золотые шлягеры Александра Зацепина (1996)\06 Юрий Никулин - А нам всё равно.wav

Длина предзазора 0:00:05.00

Пиковый уровень 52.9 % Скорость извлечения 1.6 X Качество трека 100.0 % CRC теста 21D88575 CRC копии 21D88575 Трек не обнаружен в базе AccurateRip Копирование... OK

Трек 7

Имя файла F:\_МУЗЫКА\Золотые шлягеры Александра Зацепина (1996)\07 Алла Пугачёва - И кто виноват.wav

Длина предзазора 0:00:05.00

Пиковый уровень 62.9 % Скорость извлечения 1.8 X Качество трека 100.0 % CRC теста B91DE950 CRC копии B91DE950 Трек не обнаружен в базе AccurateRip Копирование... OK

Трек 8

Имя файла F:\_МУЗЫКА\Золотые шлягеры Александра Зацепина (1996)\08 Валерий Ободзинский - Небо моё.wav

Длина предзазора 0:00:05.00

Пиковый уровень 54.8 % Скорость извлечения 1.8 X Качество трека 100.0 % CRC теста 34AB68D6 CRC копии 34AB68D6 Трек не обнаружен в базе AccurateRip Копирование... OK

Трек 9

Имя файла F:\_МУЗЫКА\Золотые шлягеры Александра Зацепина (1996)\09 Алла Пугачёва - Волшебник-недоучка.wav

Длина предзазора 0:00:02.00

Пиковый уровень 58.9 % Скорость извлечения 1.8 X Качество трека 100.0 % CRC теста 5678726B CRC копии 5678726B Трек не обнаружен в базе AccurateRip Копирование... OK

Трек 10

Имя файла F:\_МУЗЫКА\Золотые шлягеры Александра Зацепина (1996)\10 Оркестр - Берег моря.wav

Длина предзазора 0:00:04.00

Пиковый уровень 64.6 % Скорость извлечения 1.9 X Качество трека 100.0 % CRC теста 9EF179E5 CRC копии 9EF179E5 Трек не обнаружен в базе AccurateRip Копирование... OK

Трек 11

Имя файла F:\_МУЗЫКА\Золотые шлягеры Александра Зацепина (1996)\11 Татьяна Анциферова - Мир без любимого.wav

Длина предзазора 0:00:05.00

Пиковый уровень 63.9 % Скорость извлечения 2.0 X Качество трека 100.0 % CRC теста D461A64D CRC копии D461A64D Трек не обнаружен в базе AccurateRip Копирование... OK

Трек 12

Имя файла F:\_МУЗЫКА\Золотые шлягеры Александра Зацепина (1996)\12 Алла Пугачёва - Так же, как все.wav

Длина предзазора 0:00:05.00

Пиковый уровень 74.0 % Скорость извлечения 2.1 X Качество трека 100.0 % CRC теста CFF91FCA CRC копии CFF91FCA Трек не обнаружен в базе AccurateRip Копирование... OK

Трек 13

Имя файла F:\_МУЗЫКА\Золотые шлягеры Александра Зацепина (1996)\13 Олег Анофриев - Всё было.wav

Длина предзазора 0:00:05.00

Пиковый уровень 55.0 % Скорость извлечения 2.1 X Качество трека 100.0 % CRC теста 18560D8D CRC копии 18560D8D Трек не обнаружен в базе AccurateRip Копирование... OK

Трек 14

Имя файла F:\_МУЗЫКА\Золотые шлягеры Александра Зацепина (1996)\14 Алла Пугачёва - До свиданья, лето.wav

Длина предзазора 0:00:05.00

Пиковый уровень 70.3 % Скорость извлечения 2.3 X Качество трека 100.0 % CRC теста E055BF11 CRC копии E055BF11 Трек не обнаружен в базе AccurateRip Копирование... OK

Трек 15

Имя файла F:\_МУЗЫКА\Золотые шлягеры Александра Зацепина (1996)\15 Татьяна Анциферова - Звёздный мост.wav

Длина предзазора 0:00:04.00

Пиковый уровень 58.0 % Скорость извлечения 2.3 X Качество трека 100.0 % CRC теста BCE7691A CRC копии BCE7691A Трек не обнаружен в базе AccurateRip Копирование... OK

Трек 16

Имя файла F:\_МУЗЫКА\Золотые шлягеры Александра Зацепина (1996)\16 Феликс Красиловский - Было и прошло.wav

Длина предзазора 0:00:05.00

Пиковый уровень 63.2 % Скорость извлечения 2.3 X Качество трека 100.0 % CRC теста 6F7F2F4C CRC копии 6F7F2F4C Трек не обнаружен в базе AccurateRip Копирование... OK

Трек 17

Имя файла F:\_МУЗЫКА\Золотые шлягеры Александра Зацепина (1996)\17 Алла Пугачёва - Куда уходит детство.wav

Длина предзазора 0:00:05.00

Пиковый уровень 66.2 % Скорость извлечения 2.5 X Качество трека 100.0 % CRC теста 7DA622F2 CRC копии 7DA622F2 Трек не обнаружен в базе AccurateRip Копирование... OK

Трек 18

Имя файла F:\_МУЗЫКА\Золотые шлягеры Александра Зацепина (1996)\18 Алла Пугачёва - Ты не стал судьбой.wav

Длина предзазора 0:00:02.00

Пиковый уровень 62.4 % Скорость извлечения 2.5 X Качество трека 100.0 % CRC теста CD9F62F7 CRC копии CD9F62F7 Трек не обнаружен в базе AccurateRip Копирование... OK

Трек 19

Имя файла F:\_МУЗЫКА\Золотые шлягеры Александра Зацепина (1996)\19 Валерий Золотухин - Разговор со счастьем.wav

Длина предзазора 0:00:05.00

Пиковый уровень 50.9 % Скорость извлечения 2.0 X Качество трека 99.9 % CRC теста A871494E CRC копии A871494E Трек не обнаружен в базе AccurateRip Копирование... OK

Трек 20

Имя файла F:\_МУЗЫКА\Золотые шлягеры Александра Зацепина (1996)\20 Хор ансамбля МВО - Кап, кап, кап.wav

Длина предзазора 0:00:04.00

Пиковый уровень 53.6 % Скорость извлечения 2.3 X Качество трека 100.0 % CRC теста 0A8B183E CRC копии 0A8B183E Трек не обнаружен в базе AccurateRip Копирование... OK

Ни одного трека нет в базе AccurateRip

Ошибок не произошло

Конец отчёта

==== Контрольная сумма отчёта B568814C45ABCDD941ADAF998DCDDD1B872AA6C38A5FFEF088700D9AD5F09E85 ====
REM GENRE SoundtrackREM DATE 1996REM DISCID 1C115D14REM COMMENT "ExactAudioCopy v1.0b3"PERFORMER "Various Artists"TITLE "Золотые шлягеры Александра Зацепина"FILE "01 Этот мир.wav" WAVE TRACK 01 AUDIO TITLE "Этот мир" PERFORMER "Алла Пугачёва" INDEX 01 00:00:00 TRACK 02 AUDIO TITLE "Остров Невезения" PERFORMER "Андрей Миронов" INDEX 00 02:38:00FILE "02 Остров Невезения.wav" WAVE INDEX 01 00:00:00 TRACK 03 AUDIO TITLE "Помоги мне" PERFORMER "Аида Ведищева" INDEX 00 02:19:00FILE "03 Помоги мне.wav" WAVE INDEX 01 00:00:00 TRACK 04 AUDIO TITLE "Медведи" PERFORMER "Аида Ведищева" INDEX 00 04:03:00FILE "04 Медведи.wav" WAVE INDEX 01 00:00:00 TRACK 05 AUDIO TITLE "Есть только миг" PERFORMER "Олег Анофриев" INDEX 00 02:56:00FILE "05 Есть только миг.wav" WAVE INDEX 01 00:00:00 TRACK 06 AUDIO TITLE "А нам всё равно" PERFORMER "Юрий Никулин" INDEX 00 03:41:00FILE "06 А нам всё равно.wav" WAVE INDEX 01 00:00:00 TRACK 07 AUDIO TITLE "И кто виноват" PERFORMER "Алла Пугачёва" INDEX 00 03:09:00FILE "07 И кто виноват.wav" WAVE INDEX 01 00:00:00 TRACK 08 AUDIO TITLE "Небо моё" PERFORMER "Валерий Ободзинский" INDEX 00 05:13:00FILE "08 Небо моё.wav" WAVE INDEX 01 00:00:00 TRACK 09 AUDIO TITLE "Волшебник-недоучка" PERFORMER "Алла Пугачёва" INDEX 00 04:40:00FILE "09 Волшебник-недоучка.wav" WAVE INDEX 01 00:00:00 TRACK 10 AUDIO TITLE "Берег моря" PERFORMER "Оркестр" INDEX 00 03:19:00FILE "10 Берег моря.wav" WAVE INDEX 01 00:00:00 TRACK 11 AUDIO TITLE "Мир без любимого" PERFORMER "Татьяна Анциферова" INDEX 00 02:54:00FILE "11 Мир без любимого.wav" WAVE INDEX 01 00:00:00 TRACK 12 AUDIO TITLE "Так же, как все" PERFORMER "Алла Пугачёва" INDEX 00 04:10:00FILE "12 Так же, как все.wav" WAVE INDEX 01 00:00:00 TRACK 13 AUDIO TITLE "Всё было" PERFORMER "Олег Анофриев" INDEX 00 03:39:00FILE "13 Всё было.wav" WAVE INDEX 01 00:00:00 TRACK 14 AUDIO TITLE "До свиданья, лето" PERFORMER "Алла Пугачёва" INDEX 00 03:19:00FILE "14 До свиданья, лето.wav" WAVE INDEX 01 00:00:00 TRACK 15 AUDIO TITLE "Звёздный мост" PERFORMER "Татьяна Анциферова" INDEX 00 04:39:00FILE "15 Звёздный мост.wav" WAVE INDEX 01 00:00:00 TRACK 16 AUDIO TITLE "Было и прошло" PERFORMER "Феликс Красиловский" INDEX 00 03:53:00FILE "16 Было и прошло.wav" WAVE INDEX 01 00:00:00 TRACK 17 AUDIO TITLE "Куда уходит детство" PERFORMER "Алла Пугачёва" INDEX 00 03:20:00FILE "17 Куда уходит детство.wav" WAVE INDEX 01 00:00:00 TRACK 18 AUDIO TITLE "Ты не стал судьбой" PERFORMER "Алла Пугачёва" INDEX 00 04:50:00FILE "18 Ты не стал судьбой.wav" WAVE INDEX 01 00:00:00 TRACK 19 AUDIO TITLE "Разговор со счастьем" PERFORMER "Валерий Золотухин" INDEX 00 04:56:00FILE "19 Разговор со счастьем.wav" WAVE INDEX 01 00:00:00 TRACK 20 AUDIO TITLE "Кап, кап, кап" PERFORMER "Хор ансамбля МВО" INDEX 00 02:37:00FILE "20 Кап, кап, кап.wav" WAVE INDEX 01 00:00:00
-----------------------

DON'T MODIFY THIS FILE

-----------------------

PERFORMER: auCDtect Task Manager, ver. 1.5.1RC6 build 1.5.1.7Copyright (c) 2008-2010 y-soft. All rights reservedhttp://y-soft.org

ANALYZER: auCDtect: CD records authenticity detector, version 0.8.2Copyright (c) 2004 Oleg Berngardt. All rights reserved.Copyright (c) 2004 Alexander Djourik. All rights reserved.

FILE: 20 Хор ансамбля МВО - Кап, кап, кап.flac Size: 10366497 Hash: 9D2C598C716A7FFB44AC9F8CBA13D392 Accuracy: -m0 Conclusion: CDDA 99% Signature: 2E5CABEF042E47A9DEB5D8AECC32B97B42C8FC97FILE: 19 Валерий Золотухин - Разговор со счастьем.flac Size: 12844429 Hash: 1F8A339500D592B1E9568103B891DC4D Accuracy: -m0 Conclusion: CDDA 100% Signature: B009E9A4B3CB1272635D02A6B9A30B7FCD920DC1FILE: 18 Алла Пугачёва - Ты не стал судьбой.flac Size: 30983537 Hash: A03DAB2175988FE519CF412E686A8496 Accuracy: -m0 Conclusion: CDDA 100% Signature: 0C90DE8FF71CDD9B033A0348D152FFFE3DE0FDC8FILE: 17 Алла Пугачёва - Куда уходит детство.flac Size: 30237400 Hash: B80597649BB322821D241A7321704F17 Accuracy: -m0 Conclusion: CDDA 100% Signature: 6AB7DB20D5456683BD6D552DCA397AA4B20CB5AEFILE: 16 Феликс Красиловский - Было и прошло.flac Size: 19211316 Hash: ECF689591482B5A063B5D8C434B7CC65 Accuracy: -m0 Conclusion: CDDA 100% Signature: 390B2ABFA7EE383A2ECBFD3485613E598D9AACD4FILE: 15 Татьяна Анциферова - Звёздный мост.flac Size: 18602694 Hash: 22EDE8E2118754F291947B01C92EA538 Accuracy: -m0 Conclusion: CDDA 100% Signature: A0AF88D1B4572B84FE4D7DD4BA28F8F14D42B58FFILE: 14 Алла Пугачёва - До свиданья, лето.flac Size: 23440292 Hash: AAC394B1139F1F2271110DD18F3285D9 Accuracy: -m0 Conclusion: CDDA 100% Signature: 9D4BE8B6AAA673771084BA6A304A5296218A7977FILE: 13 Олег Анофриев - Всё было.flac Size: 17413995 Hash: C4B21089207B5090887E929A534A1AA8 Accuracy: -m0 Conclusion: CDDA 100% Signature: 1B8950E7012C07B862EAD430249DD7A177F019BAFILE: 12 Алла Пугачёва - Так же, как все.flac Size: 21509283 Hash: 3F98B528CCB422E9F6E0BF04685E9FF0 Accuracy: -m0 Conclusion: CDDA 100% Signature: BC122ED842FBC2FF64E4C0AE7988E8A78662E5EFFILE: 11 Татьяна Анциферова - Мир без любимого.flac Size: 23741447 Hash: 5FC296143798A1D91FD334B4E2C1E8B4 Accuracy: -m0 Conclusion: CDDA 100% Signature: 06E8D3DE62F7F7B281C30D37C683E720371924A3FILE: 10 Оркестр - Берег моря.flac Size: 15102827 Hash: 55D85D0F5C0E661B629AB9A61605D902 Accuracy: -m0 Conclusion: CDDA 100% Signature: 34E3083C25F10F213DF0250C3C4A5015FF837066FILE: 09 Алла Пугачёва - Волшебник-недоучка.flac Size: 18871589 Hash: E3A33F49A672383268EF52E52D920415 Accuracy: -m0 Conclusion: CDDA 100% Signature: 28579C75F7B3DDCCB0693CDDF4C651DF411055F2FILE: 08 Валерий Ободзинский - Небо моё.flac Size: 26807387 Hash: 15C0AD5FEA931988690E8FB17B9F393A Accuracy: -m0 Conclusion: CDDA 100% Signature: DA15CE1B2693CCEED25BA74669F506164C5EC8C1FILE: 07 Алла Пугачёва - И кто виноват.flac Size: 29090371 Hash: 61C0EDA88EB17D3F1621FE46B3F214D2 Accuracy: -m0 Conclusion: CDDA 100% Signature: D7D3BE46DF2F2BF6AC8E3B54A448B5ABA80D3B32FILE: 06 Юрий Никулин - А нам всё равно.flac Size: 14914892 Hash: 6B1718060CC6632EF238F658B5814751 Accuracy: -m0 Conclusion: CDDA 100% Signature: 43BAD0FBE41D71890D2430E36FC27D540FBAFEABFILE: 05 Олег Анофриев - Есть только миг.flac Size: 17919752 Hash: 9A6B22ABE3A6D174385B582B66D5CA30 Accuracy: -m0 Conclusion: CDDA 100% Signature: 6C817E9D57B4076221F50A8FDA4E8EB167B1EF88FILE: 04 Аида Ведищева - Медведи.flac Size: 15917654 Hash: 04F16B3E40446095A2681915202CC082 Accuracy: -m0 Conclusion: CDDA 100% Signature: 41D88FD3EDED5F1FC215B66D6152E89E4CF46672FILE: 03 Аида Ведищева - Помоги мне.flac Size: 19728105 Hash: CE1B43FA3FAE63873943312CF97B0D24 Accuracy: -m0 Conclusion: CDDA 100% Signature: D842888B15BE095387946C6876DA29984A1A3B26FILE: 02 Андрей Миронов - Остров Невезения.flac Size: 11460748 Hash: 4E23D03768D68C4DBE0C899FA33F0CDE Accuracy: -m0 Conclusion: CDDA 100% Signature: F9E65C8491E358E82B4EE8509DB0134B6477858CFILE: 01 Алла Пугачёва - Этот мир.flac Size: 16426449 Hash: FD131D8B0DA5E077204128E5278A91DF Accuracy: -m0 Conclusion: CDDA 100% Signature: 190E68A75AC326002AB9D194909D8EEF08A344DD
Стихи:
Л. Дербенева (1 – 9, 12 – 15, 17 – 20), Ю. Энтина (11, 16)

Дирижеры:
А. Зацепин (1, 9, 11, 15 – 17),
Э.Хачатурян (2 – 6, 13, 19),
В. Клейнот (7, 8, 12, 14, 18),
Ю. Реентович (10)

Кинофильмы:
«Бриллиантовая рука» (2, 3, 6),
«Кавказская пленница» (4),
«Иван Васильевич меняет профессию» (19, 20),
«Женщина, которая поет» (1, 12, 18),
«31 июня» (11, 15),
«Между небом и землей» (7, 8),
«Земля Санникова» (5, 13),
«Центровой из под небесья» (14),
«Красная палатка» (10),
«Отважный Ширак» (9),
«Спортлото-80» (16),
«Фантазия Веснухина» (17)


Трекер:  [ 27-Ноя-2014 11:00 ]

  

Скачать .torrent

Размер .torrent файла 19 KB


Размер: 410 MB
Хэш (hash) релиза: b4cc9db5b2c039fbf25945b2e7fc60bf662ae8ac

Еще никто не оставлял запись к записи скачать торрент Александр Зацепин - Золотые шлягеры Александра Зацепина - 1996, FLAC . Будь первым!

!Обратная связь